Срам-ТВ / Swearnet: The Movie (Уоррен П. Сонода) [2014 г., комедия, WEB-DLRip]

Ответить на тему
 

igor1968 ®

Стаж: 5 лет 8 месяцев

Сообщений: 366

Симпатии: 197

Срам-ТВ / Swearnet: The Movie«Because people f#@king swear» Год выпуска: 2014
Страна: Канада
Жанр: комедия
Продолжительность: 01:51:52
Перевод: Любительский (одноголосый) [Михаил Яроцкий aka kyberpunk]
ВНИМАНИЕ: Перевод содержит ненормативную лексику!
Режиссер: Уоррен П. Сонода
В ролях: Робб Уэллс, Джон Пол Тремблэ, Майк Смит, Патрик Роач, Том Грин, Скотт «Кэррот Топ» Томпсон, Мишель Морган, Сара Юргенс, Шеннон Леруа, Дэна Вудс
сценарий: Майк Смит, Джон Пол Тремблэ, Робб Уэллс
продюсер: Гари Хаусэм, Билл Маркс, Майк Смит, ...
оператор: Бобби Шор
композитор: Блэйн Моррис
художник: Мелисса Стюарт
монтаж: Кристофер Купер
премьера (мир):
29 августа 2014, ...
Описание: Устав от навязываемой им цензуры, Робб Уэллс, Майк Смит и Джон Пол Трембле решили запустить свой собственный канал в интернете, где они смогут творить все, что им заблагорассудится.- -Качество: WEB-DLRip
Формат: AVI
Видео кодек: XviD
Аудио кодек: AC3
Видео: 720x400 (1.80:1), 23.976 fps, XviD MPEG-4 ~1423 kbps avg, 1442093.32 bit/pixel
Аудио: 48 kHz, AC3 Dolby Digital, 3/2 (L,C,R,l,r) + LFE ch, ~384.00 kbps avg-

MediaInfo

General
Complete name : Sram.Tv.2014.P1.WEB-DLRip.avi
Format : AVI
Format/Info : Audio Video Interleave
File size : 1.48 GiB
Duration : 1h 51mn
Overall bit rate : 1 891 Kbps
Writing application : VirtualDubMod 1.5.10.2 (build 2540/release)
Writing library : VirtualDubMod build 2540/release
Video
ID : 0
Format : MPEG-4 Visual
Format profile : Advanced [email protected]
Format settings, BVOP : Yes
Format settings, QPel : No
Format settings, GMC : No warppoints
Format settings, Matrix : Default (H.263)
Codec ID : XVID
Codec ID/Hint : XviD
Duration : 1h 51mn
Bit rate : 1 423 Kbps
Width : 720 pixels
Height : 400 pixels
Display aspect ratio : 16:9
Frame rate : 23.976 fps
Color space : YUV
Chroma subsampling : 4:2:0
Bit depth : 8 bits
Scan type : Progressive
Compression mode : Lossy
Bits/(Pixel*Frame) : 0.206
Stream size : 1.11 GiB (75%)
Writing library : XviD 64
Audio
ID : 1
Format : AC-3
Format/Info : Audio Coding 3
Mode extension : CM (complete main)
Format settings, Endianness : Big
Codec ID : 2000
Duration : 1h 51mn
Bit rate mode : Constant
Bit rate : 384 Kbps
Channel count : 6 channels
Channel positions : Front: L C R, Side: L R, LFE
Sampling rate : 48.0 KHz
Bit depth : 16 bits
Compression mode : Lossy
Stream size : 307 MiB (20%)
Alignment : Split accross interleaves
-

Скриншоты



Создавать темы 23-Фев-2015 18:29

[Профиль]  [ЛС] 
Показать сообщения:    
Ответить на тему

Текущее время: 21-Ноя 22:19

Часовой пояс: UTC + 5



Вы не можете начинать темы
Вы не можете отвечать на сообщения
Вы не можете редактировать свои сообщения
Вы не можете удалять свои сообщения
Вы не можете голосовать в опросах
Вы не можете прикреплять файлы к сообщениям
Вы не можете скачивать файлы