Сердце дракона 3: Проклятье чародея / Dragonheart 3: The Sorcerer's Curse (Колин Тиг) [2015 г., фэнтези, приключения, HDRip]

Ответить на тему
 

igor1968 ®

Стаж: 5 лет 8 месяцев

Сообщений: 366

Симпатии: 197

Сердце дракона 3: Проклятье чародея / Dragonheart 3: The Sorcerer's Curse
Год выпуска: 2015
Страна: США
Жанр: фэнтези, приключения
Продолжительность: 01:37:05
Перевод: Любительский (двухголосый)[RAIM & NASTR]
Режиссер: Колин Тиг
В ролях: Джулиан Моррис, Тамзин Мерчант, Джонджо О Нил, Джасса Ахлувалиа, Бен Кингсли-сценарий: Мэттью Фейтшанс
продюсер: Раффаэлла Де Лаурентис, Мэттью Фейтшанс, Лиза Гудинг, ...
оператор: Дэвид Лютер
композитор: Марк МакКензи
художник: Дан Тоадер, Андриа Поупэ, Оана Паунеску, ...
монтаж: Фиона Колбек, Шарлин Шорт, Эрик Страндт
премьера (мир):
10 февраля 2015, ...
Описание: В условной, мифологической Британии идет война между рыцарями, охраняющими южные земли и кельтскими племенами с севера. Их разделяет знаменитый Адрианов Вал. Когда на землю падает звезда, юный и отважный воин Гарет решает отправиться на ее поиски. Ведь согласно легендам, там, куда упала звезда, хранятся несметные сокровища. Он перелезает через стену и оказывается в таинственном северном лесу, населенном колдунами, девами-воительницами и драконами...- -Качество: HDRip
Формат: AVI
Видео кодек: XviD
Аудио кодек: AC3
Видео: 720x400 (1.80:1), 23.976 fps, XviD build 50 ~-1873231660 kbps avg, 1566227.43 bit/pixel
Аудио: 48 kHz, AC3 Dolby Digital, 3/2 (L,C,R,l,r) + LFE ch, ~448.00 kbps avg-

MediaInfo

General
Complete name :Dragonheart.3.The.Sorcerers.Curse.2015.L2.HDRip.1490MB.avi
Format : AVI
Format/Info : Audio Video Interleave
File size : 1.46 GiB
Duration : 1h 37mn
Overall bit rate : 2 144 Kbps
Writing application : VirtualDubMod 1.5.10.2 (build 2540/release)
Writing library : VirtualDubMod build 2540/release
Video
ID : 0
Format : MPEG-4 Visual
Format profile : Advanced [email protected]
Format settings, BVOP : Yes
Format settings, QPel : No
Format settings, GMC : No warppoints
Format settings, Matrix : Default (MPEG)
Codec ID : XVID
Codec ID/Hint : XviD
Duration : 1h 37mn
Bit rate : 1 602 Kbps
Width : 720 pixels
Height : 400 pixels
Display aspect ratio : 16:9
Frame rate : 23.976 fps
Color space : YUV
Chroma subsampling : 4:2:0
Bit depth : 8 bits
Scan type : Progressive
Compression mode : Lossy
Bits/(Pixel*Frame) : 0.232
Stream size : 1.09 GiB (75%)
Writing library : XviD 1.2.1 (UTC 2008-12-04)
Audio
ID : 1
Format : AC-3
Format/Info : Audio Coding 3
Mode extension : CM (complete main)
Format settings, Endianness : Big
Codec ID : 2000
Duration : 1h 37mn
Bit rate mode : Constant
Bit rate : 448 Kbps
Channel count : 6 channels
Channel positions : Front: L C R, Side: L R, LFE
Sampling rate : 48.0 KHz
Bit depth : 16 bits
Compression mode : Lossy
Stream size : 311 MiB (21%)
Alignment : Split accross interleaves
-

Скриншоты




Создавать темы 23-Фев-2015 19:07

[Профиль]  [ЛС] 

axeman

Стаж: 5 лет

Сообщений: 380

Симпатии: 50

тв3 ?

Создавать темы 24-Фев-2015 10:59

[Профиль]  [ЛС] 

Live

Стаж: 3 года 11 месяцев

Сообщений: 76

Симпатии: 12

922202тв3 ?
ТВ----------00000))))))

Создавать темы 16-Июн-2015 15:57

[Профиль]  [ЛС] 

-OdilmaX-

Стаж: 2 года 8 месяцев

Сообщений: 425

Симпатии: 854

922202тв3 ?
Ты знаешь что означает ТВ3 an ???

Создавать темы 16-Июн-2015 19:33

[Профиль]  [ЛС] 
Показать сообщения:    
Ответить на тему

Текущее время: 18-Ноя 05:59

Часовой пояс: UTC + 5



Вы не можете начинать темы
Вы не можете отвечать на сообщения
Вы не можете редактировать свои сообщения
Вы не можете удалять свои сообщения
Вы не можете голосовать в опросах
Вы не можете прикреплять файлы к сообщениям
Вы не можете скачивать файлы