На паузе / Standby (Роб Бурк, Ронан Бурк) [2014 г., мелодрама, комедия, WEB-DLRip]

Ответить на тему
 

igor1968 ®

Стаж: 5 лет 8 месяцев

Сообщений: 366

Симпатии: 197

На паузе / Standby«Первая любовь, второй шанс» Год выпуска: 2014
Страна: Ирландия
Жанр: мелодрама, комедия
Продолжительность: 01:23:06.117
Перевод: Профессиональный (многоголосый, закадровый)
Режиссер: Роб Бурк, Ронан Бурк
В ролях: Джессика Паре, Брин Глисон, Стэнли Таунсенд, Франческа Черруо, Йен Ллойд Андерсон, Джон Линн, Тина Келлехер, Ронан Карр, Луиза Харланд, Пол Роу-сценарий: Пирс Райан
продюсер: Джон Уоллес, Дэвид Грумбах
оператор: Дэвид Греннан
композитор: Дэвид Синклер
художник: Эмма Лауни, Одри Эрню, Ули Саймон
монтаж: Тони С. Кернс, Джон Мерфи
премьера (мир):
14 мая 2014, ...
премьера (РФ):
26 февраля 2015, «100 фильм»-Описание: Алану чуть больше двадцати лет, его недавно уволили из банка, и он устраивается работать вместе со своей матерью туристическим консультантом в аэропорту Дублина. Там он сталкивается со своей первой любовью — Элис, которая застряла в аэропорту, ожидая свой рейс до Нью-Йорка.
Их с Аланом роман закончился 8 лет назад. Тогда Алан пообещал ей, что однажды приедет в США, но он не сдержал своего обещания, и с тех пор они не разговаривали. Пользуясь случаем, Алан убеждает Элис задержаться в Дублине еще на одну ночь…- -Качество: WEB-DLRip
Формат: AVI
Видео кодек: XviD
Аудио кодек: AC3
Видео: 720x304 (2.35:1), 24 fps, XviD MPEG-4 ~1730 kbps avg, 0.33 bit/pixel
Аудио: Audio #1: 48 kHz, AC3 Dolby Digital, 2/0 (L,R) ch, ~192.00 kbps avg (rus) Audio #2: 48 kHz, AC3 Dolby Digital, 3/2 (L,C,R,l,r) + LFE ch, ~384.00 kbps avg (eng)-

MediaInfo

General
Complete name : Na.Pauze.2014.P.WEB-DLRip.1400MB.avi
Format : AVI
Format/Info : Audio Video Interleave
File size : 1.36 GiB
Duration : 1h 23mn
Overall bit rate : 2 337 Kbps
Writing application : VirtualDubMod 1.5.10.2 (build 2540/release)
Writing library : VirtualDubMod build 2540/release
Video
ID : 0
Format : MPEG-4 Visual
Format profile : Advanced [email protected]
Format settings, BVOP : Yes
Format settings, QPel : No
Format settings, GMC : No warppoints
Format settings, Matrix : Default (H.263)
Codec ID : XVID
Codec ID/Hint : XviD
Duration : 1h 23mn
Bit rate : 1 658 Kbps
Width : 720 pixels
Height : 304 pixels
Display aspect ratio : 2.35:1
Frame rate : 24.000 fps
Color space : YUV
Chroma subsampling : 4:2:0
Bit depth : 8 bits
Scan type : Progressive
Compression mode : Lossy
Bits/(Pixel*Frame) : 0.316
Stream size : 985 MiB (71%)
Writing library : XviD 64
Audio #1
ID : 1
Format : AC-3
Format/Info : Audio Coding 3
Mode extension : CM (complete main)
Format settings, Endianness : Big
Codec ID : 2000
Duration : 1h 23mn
Bit rate mode : Constant
Bit rate : 192 Kbps
Channel count : 2 channels
Channel positions : Front: L R
Sampling rate : 48.0 KHz
Bit depth : 16 bits
Compression mode : Lossy
Stream size : 114 MiB (8%)
Alignment : Split accross interleaves
Audio #2
ID : 2
Format : AC-3
Format/Info : Audio Coding 3
Mode extension : CM (complete main)
Format settings, Endianness : Big
Codec ID : 2000
Duration : 1h 23mn
Bit rate mode : Constant
Bit rate : 384 Kbps
Channel count : 6 channels
Channel positions : Front: L C R, Side: L R, LFE
Sampling rate : 48.0 KHz
Bit depth : 16 bits
Compression mode : Lossy
Stream size : 228 MiB (16%)
Alignment : Split accross interleaves
-

Скриншоты



Создавать темы 23-Фев-2015 21:25

[Профиль]  [ЛС] 
Показать сообщения:    
Ответить на тему

Текущее время: 18-Ноя 17:23

Часовой пояс: UTC + 5



Вы не можете начинать темы
Вы не можете отвечать на сообщения
Вы не можете редактировать свои сообщения
Вы не можете удалять свои сообщения
Вы не можете голосовать в опросах
Вы не можете прикреплять файлы к сообщениям
Вы не можете скачивать файлы