Паприка / Paprika (This is your brain on anime) (Кон Сатоси) [Movie] [без хардсаба] [RUS(ext), JAP+SUB] [2006 г., мистика, психология, триллер, детектив, BDRip] [720p]

Ответить на тему
 

Deadушка ®

Стаж: 6 лет 6 месяцев

Сообщений: 78

Симпатии: 89

Паприка / Paprika-«This is your brain on anime.»- Страна: Япония
Год выпуска: 2006
Жанр: мистика, психология, триллер, детектив
Тип: Movie
Продолжительность: 1 ч 30 мин-Озвучка:
Многоголосная ВидеоСервис
Одноголосная мужская Юки Animegroup
Одноголосная мужская Cuba 77-Субтитры: есть
русские (внешние)
Переводчик: Dusker, Редактор: Тюлень-Студия: -Режиссер: Кон Сатоси
Возрастное ограничение: 16+-Описание: Гениальный изобретатель Косаку Токита создал прибор «ДС-мини», позволяющий проникать в чужие сны. Его коллега, д-р Ацуко Тиба, планирует с помощью «ДС-мини» налаживать более полный контакт с пациентами при лечении неврозов и иных психических расстройств. Однако несколько опытных экземпляров прибора оказались похищены; нетрудно представить, как много вреда способен причинить злоумышленник, вторгающийся во сны, или, хуже того, навязывающий людям чужие сновиденья...-
© Анастасия Розанова, World Art-Качество: BDRip
Тип видео: без хардсаба
Формат: MKV
Видео: x264, 1280x690, (16/9), ~4824кбит/с, 23.976fps, 10 bit
Аудио #1 (внешняя) русская - AC3, 6 ch, 384кбит/с, 48000Hz ВидеоСервис
Аудио #2 (внешняя) русская - AAC, 6 ch, ~280кбит/с, 48000Hz Юки
Аудио #3 (внешняя) русская - AAC, 2 ch, 128кбит/с, 44100Hz Cuba 77
Аудио #4 (в контейнере) японская - DTS, 6 ch, ~1500кбит/с, 48000Hz-

Подробные тех. данные

Общее
Уникальный идентификатор : 191218651915005652178459920888526213542 (0x8FDB5F6D845A8DC6B0F824F4016B11A6)
Полное имя : C:\Торренты №2\Paprika [BDRip 720p]\[bxyh]_Paprika_[BD_720p_444_DTS].mkv
Формат : Matroska
Версия формата : Version 2
Размер файла : 4,09 Гбайт
Продолжительность : 1 ч. 30 м.
Общий поток : 6462 Кбит/сек
Дата кодирования : UTC 2014-07-20 11:45:09
Программа кодирования : mkvmerge v2.9.7 ('Tenderness') built on Jul 1 2009 18:43:35
Библиотека кодирования : libebml v0.7.7 + libmatroska v0.8.1
Видео
Идентификатор : 1
Формат : AVC
Формат/Информация : Advanced Video Codec
Профиль формата : High 4:4:4 [email protected]
Параметр CABAC формата : Да
Параметр ReFrames формата : 8 кадров
Идентификатор кодека : V_MPEG4/ISO/AVC
Продолжительность : 1 ч. 30 м.
Битрейт : 4824 Кбит/сек
Ширина : 1280 пикселей
Высота : 690 пикселей
Соотношение сторон : 1,85:1
Режим частоты кадров : Постоянный
Частота кадров : 23,976 кадра/сек
Цветовое пространство : YUV
Субдискретизация насыщенности : 4:4:4
Битовая глубина : 10 бит
Тип развёртки : Прогрессивная
Бит/(Пиксели*Кадры) : 0.228
Размер потока : 3,05 Гбайт (75%)
Библиотека кодирования : x264 core 142 r2431 ac76440
Настройки программы : cabac=1 / ref=8 / deblock=1:-1:-1 / analyse=0x3:0x133 / me=umh / subme=9 / psy=1 / psy_rd=1.00:0.15 / mixed_ref=1 / me_range=24 / chroma_me=1 / trellis=2 / 8x8dct=1 / cqm=0 / deadzone=21,11 / fast_pskip=0 / chroma_qp_offset=3 / threads=6 / lookahead_threads=1 / sliced_threads=0 / nr=0 / decimate=1 / interlaced=0 / bluray_compat=0 / constrained_intra=0 / bframes=3 / b_pyramid=2 / b_adapt=2 / b_bias=0 / direct=3 / weightb=1 / open_gop=0 / weightp=2 / keyint=240 / keyint_min=23 / scenecut=40 / intra_refresh=0 / rc_lookahead=60 / rc=crf / mbtree=1 / crf=14.0 / qcomp=0.60 / qpmin=0 / qpmax=81 / qpstep=4 / ip_ratio=1.40 / aq=1:1.00
Язык : English
Default : Да
Forced : Нет
Аудио
Идентификатор : 2
Формат : DTS
Формат/Информация : Digital Theater Systems
Режим : 16
Параметр Endianness формата : Big
Идентификатор кодека : A_DTS
Продолжительность : 1 ч. 30 м.
Вид битрейта : Постоянный
Битрейт : 1509 Кбит/сек
Каналы : 6 каналов
Расположение каналов : Front: L C R, Side: L R, LFE
Частота : 48,0 КГц
Битовая глубина : 24 бит
Метод сжатия : С потерями
Задержка видео : 11 мс.
Размер потока : 977 Мбайт (23%)
Язык : Japanese
Default : Да
Forced : Нет
Меню
00:00:00.000 : en:00:00:00.000
00:07:57.852 : en:00:07:57.852
00:10:15.782 : en:00:10:15.782
00:15:47.947 : en:00:15:47.947
00:20:15.423 : en:00:20:15.423
00:28:05.851 : en:00:28:05.851
00:32:58.810 : en:00:32:58.810
00:38:40.235 : en:00:38:40.235
00:45:57.755 : en:00:45:57.755
00:52:46.413 : en:00:52:46.413
00:58:58.535 : en:00:58:58.535
01:03:04.114 : en:01:03:04.114
01:08:11.754 : en:01:08:11.754
01:12:25.258 : en:01:12:25.258
01:16:21.243 : en:01:16:21.243
01:24:35.654 : en:01:24:35.654

Инструкция по просмотру

• Чтобы смотреть с озвучкой, необходимо из папки к примеру Rus sound [ВидеоСервис] переписать файл в папку, где находятся видеофайл. Далее, следует запустить плеер и переключиться на mka-дорожку.
• Чтобы смотреть с субтитрами, необходимо из папки Rus subs [Dusker & Тюлень] переписать файл в папку, где находятся видеофайл. В большинстве плееров, одноимённые субтитры подключатся автоматически.

Hаграды

-Венецианский кинофестиваль, 2006 год - номинация "Золотой лев"

Рецензия

Оказывается в чужых снах, куда гораздо лучше
Не будь в один день мой товарищ и поклонник аниме, так сильно убеждать меня посмотреть «Парику» я бы и забыла о том, что существует подобная картина. Но как и всякий довольно убеждаемый в хороших советах человек выделила на очередное безумие время, и даже не пожалела о своем выборе. Скажу сразу, что направление фильма совершенно не те жанры, которые я зачастую предпочитаю, но именно такое разнообразие мне и было нужно.
Впечатляющий сюжет, окунутся в мир сновидений, в сопровождении рыжей бестии, чего еще желать любителю острых и пикантных ощущений. Сны, конечно же, вещь очень тонкая и необъяснимая, но коллективные сны, или возможность путешествия по просторам чужой фантазии, куда интереснее, тем более, если ты способен быть в каждом из них вменяемым. Блуждания по коридорам человеческих сновидений, открывает перед ученными большие возможности, и может поэтому, не переставая, трудится, они продолжают залезать в голову все глубже и глубже. Но там где есть польза, всегда сопутствует вред и допущение ошибок. Созданное устройство доктора Такиты, позволяет расшифровывать сны, вторгаясь или наблюдая за ними при этом. Но, как и в любом хитро придуманном устройстве случаются разочарования, и после смешения множества фантазий мир становится похожим на кашу, где реальность невозможно отличить от вымысла. Вот тут то и приходится горе создателям и ученым расхлебывать собственные ошибки.
Переходя к главным героям стоит отметить их разнообразие, прорисовка и индивидуальный подход к каждому выделяют их из толпы, потому что упорство здесь в первую очередь сосредоточено на характере человека, а не на внешности. Группа различных индивидуумом, движимых разными целями, вот их главная задача, но в то же время объединенные ради достижения цели, они сплоченный и очень крепкий коллектив, со своими изъянами и прорехами. Паприка, рыжеволосая девушка, являющаяся психологом в толковании снов, милая и дружелюбная особа-подросток, с ней приятно вести разговор открывая самые сокровенные тайны и желания запутанного его. В то же время ее реальность противоположная и холодная личность, не склонная к сантиментам и жалости. Может быть, всякий раз пересекаясь с одной, все же хочется возвращаться ко сну, что бы увидеть паприку.
Что бы не затягивать мое восхищение работой Сатоси Кона, скажу, что это безумное путешествие, по просторам сюрреализма, сопровождаемое музыкой Хиросавы Сусуму необходимо прочувствовать на собственной коже.
Студии Madhouse как всегда шквал аплодисментов за подаренный шедевр

Скриншоты

Создавать темы 24-Фев-2015 01:55

[Профиль]  [ЛС] 

saidnosir

Стаж: 4 года 9 месяцев

Сообщений: 8

Когда будем качать?

Создавать темы 27-Фев-2015 18:11

[Профиль]  [ЛС] 
Показать сообщения:    
Ответить на тему

Текущее время: 22-Окт 00:38

Часовой пояс: UTC + 5



Вы не можете начинать темы
Вы не можете отвечать на сообщения
Вы не можете редактировать свои сообщения
Вы не можете удалять свои сообщения
Вы не можете голосовать в опросах
Вы не можете прикреплять файлы к сообщениям
Вы не можете скачивать файлы