Викинги / Vikings / Сезон 3 / Серии: 1-10 из 10 (Киаран Доннелли, Йохан Ренк, Кен Джиротти) [2015, Боевик, драма, военный, история, WEB-DLRip]MVO (LostFilm) + MVO (AlexFilm)+ MVO (NewStudio) + MVO (B&K) + Original

Страницы :  1, 2  След.

Ответить на тему
 

emilsky ®

Стаж: 7 лет 3 месяца

Сообщений: 2237

Симпатии: 610


Викинги / Vikings
3 сезон, 1 - 10 серии
Год выпуска: 2014
Страна: Ирландия, Канада
Жанр: боевик, драма, военный, история
Продолжительность: 1х ~45 мин
Перевод: профессиональный многоголосый закадровый (LostFilm)
Перевод: профессиональный многоголосый закадровый (AlexFilm)
Перевод: профессиональный многоголосый закадровый (NewStudio)
Перевод: профессиональный многоголосый закадровый (B&K)
Субтитры: нет
Режиссеры: Йохан Ренк, Киаран Доннелли, Кен Джиротти-В ролях: Трэвис Фиммел, Клайв Стэнден, Гэбриел Бирн, Кэтрин Уинник, Джессалин Гилсиг, Джордж Благден, Густаф Скарсгард, Торбьорн Харр, Владимир Кулих, Донал Лог, Айван Кэй, Мод Хирст, Эрик Хиггинс, Герард Маккарти, Юко Ахола, Эми Де Брюн, Сэм Смит, Билл Гибсон, Кевин Мюррэй-Описание: Сериал рассказывает об отряде викингов Рагнара. Он восстал, чтобы стать королём племён викингов. Норвежская легенда гласит, что он был прямым потомком Одина, бога войны и воинов.-
  • Над проектом работали:-Релиз:
    Озвучка: Студия "Kravec"
    Перевод: Mauz-Релиз:
    Перевод: Ольга Галайда
    Монтаж и сведение звука: Сергей Мартынов
    Роли озвучивали:
  • Евгения Тихонова
  • Александр Воронов
  • Михаил Суслов
  • Александр Долгов
  • Александр Дасевич-Релиз:
    Перевод: weirdie
    Монтаж и сведение звука: Koss и Baggio
    Роли озвучивали:
  • Петр Иващенко (Гланц)
  • Константин Погодаев
  • Анна Тух-Релиз:
    Перевод: Янина Галицкая
    Роли озвучивали:
  • Артемий Мирон
  • Сергей Корчак
  • Алексей Кузнецов
  • Елена Григорьева-Рип: emilsky- -Качество: WEB-DLRip
    Формат: AVI
    Видео кодек: XviD
    Аудио кодек: MP3
    Видео: 720x400 (1.80:1), 23.976 fps, XviD ~1503 kbps avg, 0.19 bit/pixel-Аудио LostFilm: 48 kHz, MPEG Layer 3, 2 ch, ~128.00 kbps avg
    Аудио AlexFilm: 48 kHz, MPEG Layer 3, 2 ch, ~128.00 kbps avg
    Аудио NewStudio: 48 kHz, MPEG Layer 3, 2 ch, ~128.00 kbps avg
    Аудио B&K: 48 kHz, MPEG Layer 3, 2 ch, ~128.00 kbps avg
    Аудио Eng: 48 kHz, MPEG Layer 3, 2 ch, ~128.00 kbps avg

    График выхода серий

    позже

    Скриншоты

    MediaInfo

    E:\Сериалы\Викинги 3 сезон [LostFilm + AlexFilm + NewStudio + B&K + Original]\Vikings.s03e01.avi
    General
    Complete name : E:\Сериалы\Викинги 3 сезон [LostFilm + AlexFilm + NewStudio + B&K + Original]\Vikings.s03e01.avi
    Format : AVI
    Format/Info : Audio Video Interleave
    File size : 702 MiB
    Duration : 45mn 10s
    Overall bit rate : 2 172 Kbps
    Writing application : VirtualDubModRus 1.5.10.2 (build 2542/release)
    Writing library : VirtualDubMod build 2542/release
    Video #0
    ID : 0
    Format : MPEG-4 Visual
    Format profile : Advanced [email protected]
    Format settings, BVOP : 2
    Format settings, QPel : No
    Format settings, GMC : No warppoints
    Format settings, Matrix : Default (H.263)
    Codec ID : XVID
    Codec ID/Hint : XviD
    Duration : 45mn 10s
    Bit rate : 1 503 Kbps
    Width : 720 pixels
    Height : 400 pixels
    Display aspect ratio : 16:9
    Frame rate : 23.976 fps
    Color space : YUV
    Chroma subsampling : 4:2:0
    Bit depth : 8 bits
    Scan type : Progressive
    Compression mode : Lossy
    Bits/(Pixel*Frame) : 0.218
    Stream size : 486 MiB (69%)
    Writing library : XviD 1.2.1 (UTC 2008-12-04)
    Audio #1
    ID : 1
    Format : MPEG Audio
    Format version : Version 1
    Format profile : Layer 3
    Codec ID : 55
    Codec ID/Hint : MP3
    Duration : 45mn 10s
    Bit rate mode : Constant
    Bit rate : 128 Kbps
    Channel(s) : 2 channels
    Sampling rate : 44.1 KHz
    Compression mode : Lossy
    Stream size : 41.4 MiB (6%)
    Alignment : Split accross interleaves
    Interleave, duration : 42 ms (1.00 video frame)
    Interleave, preload duration : 500 ms
    Audio #2
    ID : 2
    Format : MPEG Audio
    Format version : Version 1
    Format profile : Layer 3
    Codec ID : 55
    Codec ID/Hint : MP3
    Duration : 45mn 10s
    Bit rate mode : Constant
    Bit rate : 128 Kbps
    Channel(s) : 2 channels
    Sampling rate : 44.1 KHz
    Compression mode : Lossy
    Stream size : 41.4 MiB (6%)
    Alignment : Split accross interleaves
    Interleave, duration : 42 ms (1.00 video frame)
    Interleave, preload duration : 500 ms
    Audio #3
    ID : 3
    Format : MPEG Audio
    Format version : Version 1
    Format profile : Layer 3
    Codec ID : 55
    Codec ID/Hint : MP3
    Duration : 45mn 10s
    Bit rate mode : Constant
    Bit rate : 128 Kbps
    Channel(s) : 2 channels
    Sampling rate : 44.1 KHz
    Compression mode : Lossy
    Stream size : 41.4 MiB (6%)
    Alignment : Split accross interleaves
    Interleave, duration : 42 ms (1.00 video frame)
    Interleave, preload duration : 500 ms
    Audio #4
    ID : 4
    Format : MPEG Audio
    Format version : Version 1
    Format profile : Layer 3
    Codec ID : 55
    Codec ID/Hint : MP3
    Duration : 45mn 10s
    Bit rate mode : Constant
    Bit rate : 128 Kbps
    Channel(s) : 2 channels
    Sampling rate : 44.1 KHz
    Compression mode : Lossy
    Stream size : 41.4 MiB (6%)
    Alignment : Split accross interleaves
    Interleave, duration : 42 ms (1.00 video frame)
    Interleave, preload duration : 500 ms
    Audio #5
    ID : 5
    Format : MPEG Audio
    Format version : Version 1
    Format profile : Layer 3
    Codec ID : 55
    Codec ID/Hint : MP3
    Duration : 45mn 10s
    Bit rate mode : Constant
    Bit rate : 128 Kbps
    Channel(s) : 2 channels
    Sampling rate : 44.1 KHz
    Compression mode : Lossy
    Stream size : 41.4 MiB (6%)
    Alignment : Split accross interleaves
    Interleave, duration : 42 ms (1.00 video frame)
    Interleave, preload duration : 500 ms
    1ый сезон качаем тут2ой сезон качаем тут


  • Последний раз редактировалось: emilsky (2015-04-30 15:00), всего редактировалось 11 раз(а)

    Создавать темы 24-Фев-2015 10:53

    [Профиль]  [ЛС] 

    emilsky ®

    Стаж: 7 лет 3 месяца

    Сообщений: 2237

    Симпатии: 610

    По многочисленным просьбам, овер 5 дорог.

    Создавать темы 24-Фев-2015 10:57

    [Профиль]  [ЛС] 

    ustas

    Стаж: 8 лет 9 месяцев

    Сообщений: 53

    Симпатии: 17

    аШДишности не хватает, жаль :-/
    выложу с дорожкой NewStudio как весь сезон выйдет.

    Создавать темы 24-Фев-2015 11:44

    [Профиль]  [ЛС] 

    mivat

    Стаж: 5 лет

    Сообщений: 27

    Симпатии: 9

    emilsky, а newstudio отдельно, обновляемая будет?

    Создавать темы 24-Фев-2015 18:54

    [Профиль]  [ЛС] 

    emilsky ®

    Стаж: 7 лет 3 месяца

    Сообщений: 2237

    Симпатии: 610

    922297emilsky, а newstudio отдельно, обновляемая будет?
    отдельно будут идти только алексы и лост

    Создавать темы 24-Фев-2015 19:06

    [Профиль]  [ЛС] 

    mivat

    Стаж: 5 лет

    Сообщений: 27

    Симпатии: 9

    жаль, уже привык к "Гланцу"

    Создавать темы 24-Фев-2015 21:50

    [Профиль]  [ЛС] 

    ustas

    Стаж: 8 лет 9 месяцев

    Сообщений: 53

    Симпатии: 17

    922302
    922297emilsky, а newstudio отдельно, обновляемая будет?
    отдельно будут идти только алексы и лост
    как три серии выйдет, выложу отдельно от ньюстудии или помогу раздавать тому, кто будет раздавать вот эту версию
    http://nnm-club.me/forum/viewtopic.php?t=871219

    Создавать темы 26-Фев-2015 15:52

    [Профиль]  [ЛС] 

    RedBull

    Стаж: 6 лет 6 месяцев

    Сообщений: 185

    Симпатии: 4

    да, заливал бы кто нить в 1080р, вообще слов бы не было

    Создавать темы 26-Фев-2015 17:14

    [Профиль]  [ЛС] 

    ustas

    Стаж: 8 лет 9 месяцев

    Сообщений: 53

    Симпатии: 17

    922771да, заливал бы кто нить в 1080р, вообще слов бы не было
    на мой взгляд, сейчас только один сериал имеет смысл качать и смотреть в 1080, думаю, вы понимаете о каком идёт речь :)
    всем остальным хватит и 720p

    Создавать темы 26-Фев-2015 20:14

    [Профиль]  [ЛС] 

    CHEZARE

    Стаж: 5 лет 4 месяца

    Сообщений: 9

    Симпатии: 1

    ГДЕ 2 СЕРИЯ ?УЖЕ ВЫШЛА ЗАЛЕВАЙ

    Создавать темы 28-Фев-2015 22:30

    [Профиль]  [ЛС] 

    emilsky ®

    Стаж: 7 лет 3 месяца

    Сообщений: 2237

    Симпатии: 610

    2 серия!

    Создавать темы 02-Мар-2015 09:46

    [Профиль]  [ЛС] 

    emilsky ®

    Стаж: 7 лет 3 месяца

    Сообщений: 2237

    Симпатии: 610

    3 и 4 серии!

    Создавать темы 16-Мар-2015 13:11

    [Профиль]  [ЛС] 

    Grock

    Стаж: 6 лет 8 месяцев

    Сообщений: 637

    Симпатии: 113

    emilsky, Добрый вечер, в данной раздаче надеюсь также добавите 5ую серию? Спасибо заранее

    Комментарий от emilsky


    Сорри, почему-то думал что добавил уже 5ую серию

    Создавать темы 25-Мар-2015 23:30

    [Профиль]  [ЛС] 

    emilsky ®

    Стаж: 7 лет 3 месяца

    Сообщений: 2237

    Симпатии: 610

    5 серия!

    Создавать темы 26-Мар-2015 00:23

    [Профиль]  [ЛС] 

    Lion31

    Стаж: 6 лет 8 месяцев

    Сообщений: 83

    Симпатии: 2

    femilsky, а когда 6-7 сери

    Создавать темы 06-Апр-2015 14:45

    [Профиль]  [ЛС] 
    Показать сообщения:    
    Ответить на тему

    Текущее время: 20-Окт 19:33

    Часовой пояс: UTC + 5



    Вы не можете начинать темы
    Вы не можете отвечать на сообщения
    Вы не можете редактировать свои сообщения
    Вы не можете удалять свои сообщения
    Вы не можете голосовать в опросах
    Вы не можете прикреплять файлы к сообщениям
    Вы не можете скачивать файлы