Байки Из Склепа : Рыцарь демонов ночи / Демон рыцарь / Tales from the Crypt: Demon Knight (Эрнест Р. Дикерсон / Ernest R. Dickerson) [1995 г., ужасы, фантастика, HDTVRip]

Ответить на тему
 

Baxa2009 ®

Стаж: 5 лет 4 месяца

Сообщений: 42

Симпатии: 15

Байки Из Склепа : Рыцарь демонов ночи / Демон рыцарь / Tales from the Crypt: Demon Knight Год выпуска: 1995
Страна: США
Жанр: ужасы, фантастика
Продолжительность: 01:31:43
Перевод 1: Профессиональный (двухголосый закадровый) Премьер
Перевод 2: Авторский (одноголосый закадровый) Гаврилов
Режиссер: Эрнест Р. Дикерсон / Ernest R. Dickerson
В ролях: Джон Кассир , Билли Зейн, Уильям Сэдлер, Джада Пинкетт Смит, Бренда Бакки, Си Си Эйч Паундер, Дик Миллер, Томас Хейден Чёрч, Джон Шак, Гэри Фармер
Описание: Два «человека», живущих уже не первую сотню лет, приезжают в маленький городок. Один из них, повелитель демонов, может понаделать их целую кучу из своей крови. А второй пытается его победить при помощи крови разбойника Варраввы, распятого рядом с Христом. Содержалась эта кровь в седьмом ключе, необходимом Нечистому для окончательного овладения миром. Участниками этой насыщенной кошмарами борьбы оказались несколько обычных граждан, о чем они вскоре очень пожалели…
Доп. информация: За помощь при получении исходника фильма огромное спасибо sander996
Дорожка от "Премьер" записана с VHS касеты спасибо Cheshire28 качество приличное.

Качество: HDTVRip
Формат: AVI
Видео кодек: XviD
Аудио кодек: AC3
Видео: Xvid 720x400 23.98fps 1 875 Kbps
Аудио 1: Dolby AC3 48000Hz stereo 192kbps
Аудио 2: Dolby AC3 48000Hz stereo 192kbps--

MediaInfo

Format : AVI
Format/Info : Audio Video Interleave
File size : 1.46 GiB
Duration : 1h 31mn
Overall bit rate : 2 273 Kbps
Writing application : VirtualDubModRus 1.5.10.2 (build 2542/release)
Writing library : VirtualDubMod build 2542/release
Video
ID : 0
Format : MPEG-4 Visual
Format profile : Advanced [email protected]
Format settings, BVOP : Yes
Format settings, QPel : No
Format settings, GMC : No warppoints
Format settings, Matrix : Custom
Codec ID : XVID
Codec ID/Hint : XviD
Duration : 1h 31mn
Bit rate : 1 875 Kbps
Width : 720 pixels
Height : 400 pixels
Display aspect ratio : 16:9
Frame rate : 23.976 fps
Resolution : 8 bits
Colorimetry : 4:2:0
Scan type : Progressive
Bits/(Pixel*Frame) : 0.272
Stream size : 1.20 GiB (82%)
Writing library : XviD 65
Audio #1
ID : 1
Format : AC-3
Format/Info : Audio Coding 3
Codec ID : 2000
Duration : 1h 31mn
Bit rate mode : Constant
Bit rate : 192 Kbps
Channel(s) : 2 channels
Channel positions : L R
Sampling rate : 48.0 KHz
Stream size : 126 MiB (8%)
Alignment : Split accross interleaves
Interleave, duration : 42 ms (1.00 video frame)
Interleave, preload duration : 500 ms
Audio #2
ID : 2
Format : AC-3
Format/Info : Audio Coding 3
Codec ID : 2000
Duration : 1h 31mn
Bit rate mode : Constant
Bit rate : 192 Kbps
Channel(s) : 2 channels
Channel positions : L R
Sampling rate : 48.0 KHz
Stream size : 126 MiB (8%)
Alignment : Split accross interleaves
Interleave, duration : 42 ms (1.00 video frame)
Interleave, preload duration : 500 ms
-

Скриншоты

Создавать темы 24-Фев-2015 21:15

[Профиль]  [ЛС] 

Топик был перенесен из форума Зарубежное кино в форум Фильмы до 2010
Machine

Создавать темы 24-Фев-2015 22:04

 
Показать сообщения:    
Ответить на тему

Текущее время: 23-Авг 07:17

Часовой пояс: UTC + 5



Вы не можете начинать темы
Вы не можете отвечать на сообщения
Вы не можете редактировать свои сообщения
Вы не можете удалять свои сообщения
Вы не можете голосовать в опросах
Вы не можете прикреплять файлы к сообщениям
Вы не можете скачивать файлы