Леон Морен, священник / Leon Morin, pretre (Жан-Пьер Мельвиль) [1961 г., драма, BDRip]

Ответить на тему
 

lotto ®

Стаж: 7 лет 9 месяцев

Сообщений: 221

Симпатии: 409

Леон Морен, священник / Leon Morin, pretre-- Год выпуска: 1961
Страна: Франция, Италия
Жанр: драма
Продолжительность: 01:57:43
Перевод: Любительский (одноголосый)--Режиссер: Жан-Пьер Мельвиль
В ролях: Жан-Поль Бельмондо, Эмманюэль Рива, Ирен Тунк, Nicole Mirel, Жизель Грим, Марко Бехар, Monique Bertho, Марк Эйро, Нина Грегори, Моника Хеннесси, Эдит Лория, Мишлин Шерре, Рене Лике, Симона Ваннье, Люсьенн Маршан--Описание: Некая Барни, еще не старая, но уже и не молодая женщина, воспитывающая дочку, страдает от одиночества. Шансов встретить спутника жизни с каждым годом становится все меньше, а тут еще война и оккупация. Жители провинциального городка в отношении с оккупантами ведут себя по-разному, кто-то вполне неплохо устраивается, а кто-то хотя бы тайно симпатизирует Сопротивлению. К последним относится и Барни.
Опасаясь за свою дочь, отец которой имел еврейское происхождение, она в числе других крестит ее и для спокойствия отправляет в деревню. Как-то проходя мимо церкви она решает зайти и эмоционально высказать все, что думает по поводу религии и ее институтов. Случайно выбрав священника свою исповедь она начинает фразой: «Религия- это опиум для народа». На удивление выплеснутая ею агрессия не производит ожидаемого впечатления на молодого кюре по имени Леон Морен. Тот в ответ во многом соглашается с критикой Барни насчет зашоренности от настоящих проблем и пафосности католической церкви, но предлагает заглянуть ей в глубь самой веры. Для Барни такой развитие событий было шоком.-- --Качество: BDRip
Формат: AVI
Видео кодек: XviD
Аудио кодек: AC3
Видео: 720x432, 2254 kbps, 23.976 fps
Аудио 1: 48 kHz, 2 ch, 192 kbps (русский, одноголосый)
Аудио 2: 48 kHz, 1 ch, 192 kbps (французский)

MediaInfo

General
Complete name : /Leon.Morin.Priest.1961.bdrip_[2.18]_[teko]/Leon.Morin.Priest.1961.bdrip_[2.18].avi
Format : AVI
Format/Info : Audio Video Interleave
Format profile : OpenDML
File size : 2.18 GiB
Duration : 1h 57mn
Overall bit rate : 2 656 Kbps
Writing application : VirtualDubMod 1.5.10.3 | www.virtualdub-fr.org || (build 2550/release)
Writing library : VirtualDubMod build 2550/release
Video
ID : 0
Format : MPEG-4 Visual
Format profile : Advanced [email protected]
Format settings, BVOP : 1
Format settings, QPel : No
Format settings, GMC : No warppoints
Format settings, Matrix : Custom
Codec ID : XVID
Codec ID/Hint : XviD
Duration : 1h 57mn
Bit rate : 2 254 Kbps
Width : 720 pixels
Height : 432 pixels
Display aspect ratio : 1.667
Frame rate : 23.976 fps
Color space : YUV
Chroma subsampling : 4:2:0
Bit depth : 8 bits
Scan type : Progressive
Compression mode : Lossy
Bits/(Pixel*Frame) : 0.302
Stream size : 1.85 GiB (85%)
Writing library : XviD 63
Audio #1
ID : 1
Format : AC-3
Format/Info : Audio Coding 3
Mode extension : CM (complete main)
Format settings, Endianness : Big
Codec ID : 2000
Duration : 1h 57mn
Bit rate mode : Constant
Bit rate : 192 Kbps
Channel(s) : 2 channels
Channel positions : Front: L R
Sampling rate : 48.0 KHz
Bit depth : 16 bits
Compression mode : Lossy
Stream size : 162 MiB (7%)
Alignment : Split accross interleaves
Interleave, duration : 42 ms (1.00 video frame)
Interleave, preload duration : 500 ms
Audio #2
ID : 2
Format : AC-3
Format/Info : Audio Coding 3
Mode extension : CM (complete main)
Format settings, Endianness : Big
Codec ID : 2000
Duration : 1h 57mn
Bit rate mode : Constant
Bit rate : 192 Kbps
Channel(s) : 1 channel
Channel positions : Front: C
Sampling rate : 48.0 KHz
Bit depth : 16 bits
Compression mode : Lossy
Stream size : 162 MiB (7%)
Alignment : Split accross interleaves
Interleave, duration : 42 ms (1.00 video frame)
Interleave, preload duration : 500 ms

Скриншоты





Создавать темы 25-Фев-2015 17:49

[Профиль]  [ЛС] 

Tiar17

Стаж: 6 лет

Сообщений: 83

Симпатии: 5

описание заинтересовало, качаю. благодарю.

Создавать темы 25-Фев-2015 18:13

[Профиль]  [ЛС] 
Показать сообщения:    
Ответить на тему

Текущее время: 18-Окт 20:04

Часовой пояс: UTC + 5



Вы не можете начинать темы
Вы не можете отвечать на сообщения
Вы не можете редактировать свои сообщения
Вы не можете удалять свои сообщения
Вы не можете голосовать в опросах
Вы не можете прикреплять файлы к сообщениям
Вы не можете скачивать файлы