Перелом / Fracture (Грегори Хоблит / Gregory Hoblit) [2007, США, Германия, триллер, драма, криминал, детектив, BDRip-AVC] Dub + Sub (Rus,eng) + Original Eng

Ответить на тему
 

ScorpiuS ®

Стаж: 7 лет 1 месяц

Сообщений: 206

Симпатии: 122

Перелом / Fracture
Страна: США, Германия
Жанр: триллер, драма, криминал, детектив
Год выпуска: 2007
Продолжительность: 01:53:27
Перевод: Профессиональный (дублированный)
Cубтитры: русские, английские
Оригинальная аудиодорожка: английский
Режиссер: Грегори Хоблит / Gregory Hoblit-В ролях: Энтони Хопкинс /Anthony Hopkins, Райан Гослинг /Ryan Gosling, Дэвид Стрэтэйрн /David Strathairn, Розамунд Пайк /Rosamund Pike, Эмбет Дэвидц /Embeth Davidtz, Билли Бёрк /Billy Burke, Клифф Кёртис /Cliff Curtis, Фиона Шоу /Fiona Shaw, Боб Гантон /Bob Gunton, Джош Стэмберг /Josh Stamberg-Описание: Миллионер Тед Кроуфорд (Энтони Хопкинс) без ума от своей жены Дженнифер (Эмбет Дэвидц). Однажды Тед узнает, что благоверная — не такая уж благоверная и изменяет ему с офицером полиции. И тогда Кроуфорд с поразительным (во всяком случае, для охваченного приступом ревности супруга) хладнокровием пускает жене пулю в лицо. Ряд юридических нестыковок и собственная хитрость, вроде бы, позволяют Теду избежать тюрьмы, однако на пути к окончательной свободе встает молодой помощник окружного прокурора Уилли Бичем (Райан Гослинг) — амбициозный законник, умудрившийся добиться вердикта «виновен» для 97% своих «подопечных».
 
Качество видео: BDRip-AVC
Формат видео: MKV
Видео: 1080x458 (2,35:1), 23,976 fps, AVC, ~1863 Kbps
Аудио 1: Русский: 48 kHz, AC3, 3/2 (L,C,R,l,r) + LFE ch, ~ 448.00 kbps - DUB
Аудио 2: Английский: 48 kHz, AC3, 3/2 (L,C,R,l,r) + LFE ch, ~ 448.00 kbps

MediaInfo

raw [info]: 1080x458p 1:1 @ 24000/1001 fps (cfr)
x264 [info]: using SAR=1/1
x264 [info]: using cpu capabilities: MMX2 SSE2Fast SSSE3 SSE4.2 AVX
x264 [info]: profile High, level 4.1
x264 [info]: frame I:1336 Avg QP:15.73 size: 65196
x264 [info]: frame P:34786 Avg QP:19.49 size: 20129
x264 [info]: frame B:127098 Avg QP:21.29 size: 6268-Общее
Уникальный идентификатор : 184354059769572178009999018041315771643 (0x8AB14CE7893030B1BB0E9FBCA69944FB)
Полное имя : D:\Perelom_2007-BDRip-AVC.mkv
Формат : Matroska
Версия формата : Version 2
Размер файла : 2,19 Гбайт
Продолжительность : 1 ч. 53 м.
Общий поток : 2760 Кбит/сек
Дата кодирования : UTC 2014-01-20 09:04:52
Программа кодирования : mkvmerge v5.1.0 ('And so it goes') built on Nov 28 2011 23:58:28
Библиотека кодирования : libebml v1.2.3 + libmatroska v1.3.0
Видео
Идентификатор : 1
Формат : AVC
Формат/Информация : Advanced Video Codec
Профиль формата : [email protected]
Параметр CABAC формата : Да
Параметр ReFrames формата : 12 кадров
Идентификатор кодека : V_MPEG4/ISO/AVC
Продолжительность : 1 ч. 53 м.
Битрейт : 1863 Кбит/сек
Ширина : 1080 пикселей
Высота : 458 пикселей
Соотношение сторон : 2,35:1
Режим частоты кадров : Постоянный
Частота кадров : 23,976 кадра/сек
Цветовое пространство : YUV
Субдискретизация насыщенности : 4:2:0
Битовая глубина : 8 бит
Тип развёртки : Прогрессивная
Бит/(Пиксели*Кадры) : 0.157
Размер потока : 1,43 Гбайт (66%)
Библиотека кодирования : x264 core 133 r2334 a3ac64b
Настройки программы : cabac=1 / ref=12 / deblock=1:-3:-2 / analyse=0x3:0x113 / me=umh / subme=10 / psy=1 / psy_rd=1.05:0.10 / mixed_ref=1 / me_range=24 / chroma_me=1 / trellis=2 / 8x8dct=1 / cqm=0 / deadzone=21,11 / fast_pskip=0 / chroma_qp_offset=-3 / threads=12 / lookahead_threads=2 / sliced_threads=0 / nr=0 / decimate=0 / interlaced=0 / bluray_compat=0 / constrained_intra=0 / bframes=8 / b_pyramid=2 / b_adapt=2 / b_bias=0 / direct=3 / weightb=1 / open_gop=0 / weightp=2 / keyint=250 / keyint_min=23 / scenecut=40 / intra_refresh=0 / rc_lookahead=60 / rc=2pass / mbtree=1 / bitrate=1863 / ratetol=1.0 / qcomp=0.67 / qpmin=0 / qpmax=41 / qpstep=4 / cplxblur=20.0 / qblur=0.5 / ip_ratio=1.35 / aq=1:1.00
Язык : English
Default : Да
Forced : Нет
Основные цвета : BT.709
Характеристики трансфера : BT.709
Коэффициенты матрицы : BT.709
Аудио #1
Идентификатор : 2
Формат : AC-3
Формат/Информация : Audio Coding 3
Расширение режима : CM (complete main)
Параметр Endianness формата : Big
Идентификатор кодека : A_AC3
Продолжительность : 1 ч. 53 м.
Вид битрейта : Постоянный
Битрейт : 448 Кбит/сек
Каналы : 6 каналов
Расположение каналов : Front: L C R, Side: L R, LFE
Частота : 48,0 КГц
Битовая глубина : 16 бит
Метод сжатия : С потерями
Размер потока : 364 Мбайт (16%)
Заголовок : DUB
Язык : Russian
Default : Да
Forced : Нет
Аудио #2
Идентификатор : 3
Формат : AC-3
Формат/Информация : Audio Coding 3
Расширение режима : CM (complete main)
Параметр Endianness формата : Big
Идентификатор кодека : A_AC3
Продолжительность : 1 ч. 53 м.
Вид битрейта : Постоянный
Битрейт : 448 Кбит/сек
Каналы : 6 каналов
Расположение каналов : Front: L C R, Side: L R, LFE
Частота : 48,0 КГц
Битовая глубина : 16 бит
Метод сжатия : С потерями
Размер потока : 364 Мбайт (16%)
Язык : English
Default : Нет
Forced : Нет
Текст #1
Идентификатор : 4
Формат : UTF-8
Идентификатор кодека : S_TEXT/UTF8
Идентификатор кодека/Информация : UTF-8 Plain Text
Заголовок : Full
Язык : Russian
Default : Нет
Forced : Нет
Текст #2
Идентификатор : 5
Формат : UTF-8
Идентификатор кодека : S_TEXT/UTF8
Идентификатор кодека/Информация : UTF-8 Plain Text
Заголовок : Full
Язык : English
Default : Нет
Forced : Нет

Скриншоты






Создавать темы 27-Фев-2015 13:03

[Профиль]  [ЛС] 

opium-gangster

Стаж: 4 года 7 месяцев

Сообщений: 78

Симпатии: 8

Молочик Я остальные фильмы закину Райана Гослинга как раз этого у меня нет фильма

Создавать темы 27-Фев-2015 23:28

[Профиль]  [ЛС] 
Показать сообщения:    
Ответить на тему

Текущее время: 22-Окт 04:03

Часовой пояс: UTC + 5



Вы не можете начинать темы
Вы не можете отвечать на сообщения
Вы не можете редактировать свои сообщения
Вы не можете удалять свои сообщения
Вы не можете голосовать в опросах
Вы не можете прикреплять файлы к сообщениям
Вы не можете скачивать файлы