Правила охоты. Отступник / Серии: 1-4 из 4 (Давид Зограбян) [2014, Боевик, SATRip]

Ответить на тему
 

Zab ®

Стаж: 6 лет 5 месяцев

Сообщений: 476

Симпатии: 424

Правила охоты. Отступник- Год выпуска: 2014
Производство: Berg Sound
Жанр: Боевик
Продолжительность: ~00:45:00
Субтитры: нет-Режиссёр: Давид Зограбян
В ролях: Юрий Кормушин, Сергей Апрельский, Лилия Мэй, Петар Зекавица, Леонид Евтифьев, Татьяна Лянник, Евгений Никитин, Виген Степанян, Александр Катин (II)-Описание: Бывший советский ученый-перебежчик решает вернуться на Родину и в обмен на прощение предлагает передать правительству материалы секретной программы "Орбита 12". Ученый также располагает данными, которые позволят выйти на предателя в российских спецслужбах. Однако во время контакта с представителем ученого в Стамбуле погибают сразу три члена спецгруппы генерала Сергачева, а сам он попадает под подозрение. Тем временем, в Россию прибывает агент-убийца из Европы, который методично устраняет всех, кто когда-либо имел отношение к секретной программе. Чтобы доказать свою невиновность, Сергачев формирует спецгруппу и отправляется в Европу на поиски ученого, но операция проваливается, ученого убивают, а сам генерал попадает в руки иностранной разведки.-Доп. Информация:
Последовательность:
1. Синдром Шахматиста / Серии: 1-4 из 4 (Карен Адамян) [2014, Боевик, DVDRip]
2. Правила охоты. Отступник / Серии: 1-4 из 4 (Давид Зограбян) [2014, Боевик, SATRip]
3. Правила охоты. Штурм / Серии: 1-4 из 4 (Грач Кешишян) [2015, Боевик, SATRip]-Качество: SATRip
Формат: AVI
Видео кодек: XviD
Аудио кодек: АС-3
Видео: 720x304 (1.80:1), 25 fps, XviD build 50 ~1600 kbps avg, 0.22 bit/pixel
Аудио: 48 kHz, AC3 Dolby Digital, 2/0 (L,R) ch, ~192.00 kbps avg
Сторонней рекламы нет!

MediaInfo

GeneralComplete name : D:\Otstupnik.2014.SATRip.Files-x.GeneralFilm\01.Otstupnik.2014.SATRip.Files-x.GeneralFilm.aviFormat : AVIFormat/Info : Audio Video InterleaveFile size : 559 MiBDuration : 44mn 45sOverall bit rate : 1 747 KbpsWriting application : VirtualDubModRus 1.5.10.2 (build 2542/release)Writing library : VirtualDubMod build 2542/release
VideoID : 0Format : MPEG-4 VisualFormat profile : Advanced [email protected] settings, BVOP : 1Format settings, QPel : NoFormat settings, GMC : No warppointsFormat settings, Matrix : CustomCodec ID : XVIDCodec ID/Hint : XviDDuration : 44mn 45sBit rate : 1 546 KbpsWidth : 720 pixelsHeight : 304 pixelsDisplay aspect ratio : 2.35:1Frame rate : 25.000 fpsColor space : YUVChroma subsampling : 4:2:0Bit depth : 8 bitsScan type : ProgressiveCompression mode : LossyBits/(Pixel*Frame) : 0.282Stream size : 495 MiB (88%)Writing library : XviD 73
AudioID : 1Format : AC-3Format/Info : Audio Coding 3Mode extension : CM (complete main)Format settings, Endianness : BigCodec ID : 2000Duration : 44mn 45sBit rate mode : ConstantBit rate : 192 KbpsChannel(s) : 2 channelsChannel positions : Front: L RSampling rate : 48.0 KHzBit depth : 16 bitsCompression mode : LossyStream size : 61.5 MiB (11%)Alignment : Split accross interleavesInterleave, duration : 40 ms (1.00 video frame)Interleave, preload duratio : 500 ms

Скриншоты





Последний раз редактировалось: Zab (2015-03-05 15:50), всего редактировалось 4 раз(а)

Создавать темы 01-Мар-2015 00:41

[Профиль]  [ЛС] 

Zab ®

Стаж: 6 лет 5 месяцев

Сообщений: 476

Симпатии: 424

3 - часть:
  • Правила охоты. Штурм / Серии: 1-4 из 4 (Грач Кешишян) [2015, Боевик, SATRip]
  • Создавать темы 01-Мар-2015 02:38

    [Профиль]  [ЛС] 
    Показать сообщения:    
    Ответить на тему

    Текущее время: 17-Окт 12:49

    Часовой пояс: UTC + 5



    Вы не можете начинать темы
    Вы не можете отвечать на сообщения
    Вы не можете редактировать свои сообщения
    Вы не можете удалять свои сообщения
    Вы не можете голосовать в опросах
    Вы не можете прикреплять файлы к сообщениям
    Вы не можете скачивать файлы