Посторонний / The Intruders (Адам Мэсси) [2015 г., триллер, DVDRip]

Ответить на тему
 

igor1968 ®

Стаж: 5 лет 9 месяцев

Сообщений: 366

Симпатии: 197

Посторонний / The Intruders Год выпуска: 2015
Страна: Канада
Жанр: триллер
Продолжительность: 01:32:08.481
Перевод: Любительский (одноголосый)(Павел Морозов aka PashaUp)
Режиссер: Адам Мэсси
В ролях: Миранда Косгров, Донал Лог, Том Сайзмор, Дженесса Грант, Остин Роберт Батлер, Клер Каларко, Майкл Лакетт, Маккензи Болл-сценарий: Jason Juravic
продюсер: Джефф Сэкман, Николас Табаррок, Крис Дэнтон, ...
оператор: Брендан Стиси
композитор :Джозеф Мюррэй, Лодевейк Воз
художник: Элиза Сове, Пьер Бономм, Маргарет Мор, ...
монтаж: Дэйл Гань-Описание: После трагической потери матери, девочка-подросток, пытается раскрыть темные тайны ее нового дома, несмотря на то, что отец не верит ей…- -Качество: DVDRip
Формат: AVI
Видео кодек: XviD
Аудио кодек: AC3
Видео: 640x272 (2.35:1), 23.976 fps, XviD MPEG-4 ~175717545 kbps avg, 342582.36 bit/pixel
Аудио: 48 kHz, AC3 Dolby Digital, 2/0 (L,R) ch, ~192.00 kbps avg-

MediaInfo

General
Complete name : Посторонний.2015.avi
Format : AVI
Format/Info : Audio Video Interleave
File size : 740 MiB
Duration : 1h 32mn
Overall bit rate : 1 123 Kbps
Writing application : VirtualDubMod 1.5.10.2 (build 2540/release)
Writing library : VirtualDubMod build 2540/release
Video
ID : 0
Format : MPEG-4 Visual
Format profile : Advanced [email protected]
Format settings, BVOP : Yes
Format settings, QPel : No
Format settings, GMC : No warppoints
Format settings, Matrix : Default (H.263)
Codec ID : XVID
Codec ID/Hint : XviD
Duration : 1h 32mn
Bit rate : 878 Kbps
Width : 640 pixels
Height : 272 pixels
Display aspect ratio : 2.35:1
Frame rate : 23.976 fps
Color space : YUV
Chroma subsampling : 4:2:0
Bit depth : 8 bits
Scan type : Progressive
Compression mode : Lossy
Bits/(Pixel*Frame) : 0.210
Stream size : 578 MiB (78%)
Writing library : XviD 64
Audio
ID : 1
Format : AC-3
Format/Info : Audio Coding 3
Mode extension : CM (complete main)
Format settings, Endianness : Big
Codec ID : 2000
Duration : 1h 32mn
Bit rate mode : Constant
Bit rate : 192 Kbps
Channel count : 2 channels
Channel positions : Front: L R
Sampling rate : 48.0 KHz
Bit depth : 16 bits
Compression mode : Lossy
Stream size : 127 MiB (17%)
Alignment : Split accross interleaves
-

Скриншоты




Создавать темы 01-Мар-2015 02:16

[Профиль]  [ЛС] 

Xakker_xxx

Стаж: 5 лет 7 месяцев

Сообщений: 53

Симпатии: 1

По рейтингом всё известно.

Создавать темы 02-Мар-2015 14:18

[Профиль]  [ЛС] 
Показать сообщения:    
Ответить на тему

Текущее время: 18-Дек 04:39

Часовой пояс: UTC + 5



Вы не можете начинать темы
Вы не можете отвечать на сообщения
Вы не можете редактировать свои сообщения
Вы не можете удалять свои сообщения
Вы не можете голосовать в опросах
Вы не можете прикреплять файлы к сообщениям
Вы не можете скачивать файлы