Кровавая леди Батори / Lady of Csejte (Андрей Конст) [2015 г., Триллер, WEB-DLRip] [Лицензия]

Ответить на тему
 

bbk ®

Стаж: 7 лет

Сообщений: 435

Симпатии: 479

Кровавая леди Батори / Lady of Csejte
Год выпуска: 2015
Страна: Россия, США / Enjoy Movies
Жанр: Триллер
Продолжительность: 01:46:14
Перевод: Оригинал (Лицензия)
Режиссер: Андрей Конст
В ролях: Светлана Ходченкова, Павел Деревянко, Ада Кондееску, Хория Врачиу, Изабелль Аллен, Лукас Бонд, Лия Синчевич, Александра Пояна, Пауль Дьяконеску, Вирджиния Рогин
Описание: 17 век… Чейте (Чахтице), королевство Венгрия. В огромном замке, окруженном лесами и горами, живет прекрасная графиня Элизабета Батори. Она умна и красива, элегантна и учтива. И никто не знает, что в замке знаменитой красавицы творятся страшные вещи…
Иногда легенды — не вымысел. Такова история самой влиятельной женщины своего времени и самой жестокой убийцы всех времен.
 
Качество: WEB-DLRip
Формат: AVI
Видео кодек: XviD
Аудио кодек: AC3
Видео: ~1577 kbps, 720x304(2.37:1)
Аудио: AC3 5.1, 448 kbps

MI

General
    Complete name : Ledi.Batori.2015.O.WEB-DLRip.avi
    Format : AVI
    Format/Info : Audio Video Interleave
    File size : 1.46 GiB
    Duration : 1h 42mn
    Overall bit rate : 2 034 Kbps
    Writing application : VirtualDubMod 1.5.10.3 | www.virtualdub-fr.org || (build 2550/release)
    Writing library : VirtualDubMod build 2550/release
  Video #0
    ID : 0
    Format : MPEG-4 Visual
    Format profile : Advanced [email protected]
    Format settings, BVOP : 2
    Format settings, QPel : No
    Format settings, GMC : No warppoints
    Format settings, Matrix : Default (MPEG)
    Codec ID : XVID
    Codec ID/Hint : XviD
    Duration : 1h 42mn
    Bit rate : 1 577 Kbps
    Width : 720 pixels
    Height : 304 pixels
    Display aspect ratio : 2.500
    Frame rate : 25.000 fps
    Color space : YUV
    Chroma subsampling : 4:2:0
    Bit depth : 8 bits
    Scan type : Progressive
    Compression mode : Lossy
    Bits/(Pixel*Frame) : 0.288
    Stream size : 1.13 GiB (78%)
    Writing library : XviD 1.2.1 (UTC 2008-12-04)
  Audio #1
    ID : 1
    Format : AC-3
    Format/Info : Audio Coding 3
    Mode extension : CM (complete main)
    Format settings, Endianness : Big
    Codec ID : 2000
    Duration : 1h 42mn
    Bit rate mode : Constant
    Bit rate : 448 Kbps
    Channel(s) : 6 channels
    Channel positions : Front: L C R, Side: L R, LFE
    Sampling rate : 48.0 KHz
    Bit depth : 16 bits
    Compression mode : Lossy
    Stream size : 329 MiB (22%)
    Alignment : Split accross interleaves
    Interleave, duration : 40 ms (1.00 video frame)
    Interleave, preload duration : 500 ms

Скриншоты



Создавать темы 01-Мар-2015 03:10

[Профиль]  [ЛС] 

Shera_best

Стаж: 3 года 11 месяцев

Сообщений: 40

Симпатии: 12

как фильм?

Создавать темы 06-Мар-2015 19:38

[Профиль]  [ЛС] 

Николай Сенчи

Стаж: 6 лет 11 месяцев

Сообщений: 88

Симпатии: 6

Спасибо за релиз и раздачу!

Создавать темы 04-Окт-2015 19:51

[Профиль]  [ЛС] 
Показать сообщения:    
Ответить на тему

Текущее время: 18-Ноя 13:39

Часовой пояс: UTC + 5



Вы не можете начинать темы
Вы не можете отвечать на сообщения
Вы не можете редактировать свои сообщения
Вы не можете удалять свои сообщения
Вы не можете голосовать в опросах
Вы не можете прикреплять файлы к сообщениям
Вы не можете скачивать файлы