Штирия / Styria (Маурицио Черновецкий) [2014 г., Фэнтези, Триллер, Детектив, BDRip 720p-LQ] | L2

Ответить на тему
 

bbk ®

Стаж: 7 лет

Сообщений: 435

Симпатии: 479

Штирия / Styria
Год выпуска: 2014
Страна: США, Венгрия, Like Fire Productions, MCMD Films, Pioneer Pictures
Жанр: Фэнтези, Триллер, Детектив
Продолжительность: 01:39:18
Перевод: Любительский (двухголосый) | DeadSno & den904
Режиссер: Маурицио Черновецкий
В ролях: Элинор Томлинсон, Стивен Ри, Эрика Марожан, Кэти Силверман, Жуль Уиллкокс, Юлия Петруха, Миклош Секей Б., Герда Пикали, Яцек Ленартович, Ласло Кадар
Описание: Действие фильма происходит в 1989 году. Лару исключают из школы, и её отец, доктор Хилл, вынужден взять дочь с собой в экспедицию в страны за железным занавесом. Они отправляются в разрушенный замок Карнштейн. Там они знакомятся с молодой девушкой Кармиллой. Лара привлечена Кармиллой, и вместе они бродят по развалинам замка и окрестным лесам. Тем временем таинственные силы просыпаются в замке и одолевают его обитателей. Местный генерал хочет уничтожить замок, место нечистой силы, и всех, кто там находится. Кармилла предлагает Ларе спасение, но для этого девушка должна пройти ужасное испытание.
 
Качество: BDRip
Формат: MKV
Видео кодек: Другой MPEG4
Аудио кодек: AC3
Видео: MPEG-4 AVC/H.264, ~3805 Kбит/с, 1280х718
Аудио: AC3 2.0, 192 Кбит/с

MediaInfo

General
Complete name : Styria.BDRip.2014.mkv
Format : Matroska
File size : 2.83 GiB
Duration : 1h 39mn
Overall bit rate : 4 078 Kbps
Encoded date : UTC 2015-02-28 11:48:16
Writing application : mkvmerge v7.2.0 ('On Every Street') 64bit built on Sep 13 2014 15:52:10
Writing library : libebml v1.3.0 + libmatroska v1.4.1
Video
ID : 1
Format : AVC
Format/Info : Advanced Video Codec
Format profile : [email protected]
Format settings, CABAC : No
Format settings, ReFrames : 2 frames
Muxing mode : Container [email protected]
Codec ID : V_MPEG4/ISO/AVC
Duration : 1h 39mn
Bit rate : 3 805 Kbps
Width : 1 280 pixels
Height : 718 pixels
Display aspect ratio : 16:9
Frame rate : 24.000 fps
Resolution : 8 bits
Colorimetry : 4:2:0
Scan type : Progressive
Bits/(Pixel*Frame) : 0.173
Stream size : 2.64 GiB (93%)
Color primaries : BT.709-5, BT.1361, IEC 61966-2-4, SMPTE RP177
Transfer characteristics : BT.709-5, BT.1361
Matrix coefficients : BT.709-5, BT.1361, IEC 61966-2-4 709, SMPTE RP177
Audio
ID : 2
Format : AC-3
Format/Info : Audio Coding 3
Codec ID : A_AC3
Duration : 1h 39mn
Bit rate mode : Constant
Bit rate : 192 Kbps
Channel(s) : 2 channels
Channel positions : L R
Sampling rate : 48.0 KHz
Stream size : 136 MiB (5%)

Скриншоты

Создавать темы 02-Мар-2015 01:55

[Профиль]  [ЛС] 
Показать сообщения:    
Ответить на тему

Текущее время: 20-Ноя 02:40

Часовой пояс: UTC + 5



Вы не можете начинать темы
Вы не можете отвечать на сообщения
Вы не можете редактировать свои сообщения
Вы не можете удалять свои сообщения
Вы не можете голосовать в опросах
Вы не можете прикреплять файлы к сообщениям
Вы не можете скачивать файлы