Эверли / Everly (Джо Линч) [2014 г., боевик, триллер, WEB-DLRip] Чистый звук

Ответить на тему
 

SNation ®

Стаж: 4 года 4 месяца

Сообщений: 81

Симпатии: 70

Эверли / Everly--«Она способна абсолютно на всё»-- Год выпуска: 2014
Страна: США
Жанр: боевик, триллер
Продолжительность: 01:31:44
Перевод: Дублированный [Чистый звук] Официальный-Режиссеры: Джо Линч-В ролях:
Сальма Хайек, Дженнифер Бланк, Того Игава, Кэролайн Чикези, Габриэлла Райт, Энди МакДермотт, Аки Котабе, Уки Сертич, Масаси Фудзимото, Елена Гаврилович
Описание:
Женщина пытается выжить в схватке с бойцами якудзы, чтобы спасти своих мать и дочь. Действие всего фильма происходит в стенах одной квартиры.- -Качество: WEB-DLRip
Формат: AVI
Видео кодек: XviD
Аудио кодек: AC3
Видео: XviD, 1 865 Kbps, 720x304, 23.976 fps
Аудио: AC3, , 48.0 KHz, 384 Кбит/с, (2 ch)

MediaInfo

General
Complete name                            : D:\Everli.2014.D.WEB-DLRip.1400MB.avi
Format                                   : AVI
Format/Info                              : Audio Video Interleave
File size                                : 1.46 GiB
Duration                                 : 1h 32mn
Overall bit rate                         : 2 258 Kbps
Writing application                      : VirtualDubMod 1.5.10.2 (build 2540/release)
Writing library                          : VirtualDubMod build 2540/release
Video
ID                                       : 0
Format                                   : MPEG-4 Visual
Format profile                           : Advanced [email protected]
Format settings, BVOP                    : 1
Format settings, QPel                    : No
Format settings, GMC                     : No warppoints
Format settings, Matrix                  : Custom
Codec ID                                 : XVID
Codec ID/Hint                            : XviD
Duration                                 : 1h 32mn
Bit rate                                 : 1 865 Kbps
Width                                    : 720 pixels
Height                                   : 304 pixels
Display aspect ratio                     : 2.35:1
Frame rate                               : 23.976 fps
Color space                              : YUV
Chroma subsampling                       : 4:2:0
Bit depth                                : 8 bits
Scan type                                : Progressive
Compression mode                         : Lossy
Bits/(Pixel*Frame)                       : 0.355
Stream size                              : 1.20 GiB (83%)
Writing library                          : XviD 73
Audio
ID                                       : 1
Format                                   : AC-3
Format/Info                              : Audio Coding 3
Mode extension                           : CM (complete main)
Format settings, Endianness              : Big
Codec ID                                 : 2000
Duration                                 : 1h 32mn
Bit rate mode                            : Constant
Bit rate                                 : 384 Kbps
Channel(s)                               : 2 channels
Channel positions                        : Front: L R
Sampling rate                            : 48.0 KHz
Bit depth                                : 16 bits
Compression mode                         : Lossy
Stream size                              : 254 MiB (17%)
Alignment                                : Split accross interleaves
Interleave, duration                     : 42 ms (1.00 video frame)
Interleave, preload duration             : 500 ms

Скриншоты

Создавать темы 02-Мар-2015 09:02

[Профиль]  [ЛС] 

iwaiv

Стаж: 3 года 6 месяцев

Сообщений: 11

Симпатии: 3

Посмотрим, спасибо.

Создавать темы 02-Мар-2015 16:49

[Профиль]  [ЛС] 

SNation ®

Стаж: 4 года 4 месяца

Сообщений: 81

Симпатии: 70

923661Посмотрим, спасибо.
Пожалуйста, качайте.

Создавать темы 02-Мар-2015 20:07

[Профиль]  [ЛС] 

LanigirO

Стаж: 4 года 5 месяцев

Сообщений: 49

Симпатии: 19

Крутяг! Качну для коллекции)))

Создавать темы 03-Мар-2015 20:52

[Профиль]  [ЛС] 
Показать сообщения:    
Ответить на тему

Текущее время: 23-Авг 15:07

Часовой пояс: UTC + 5



Вы не можете начинать темы
Вы не можете отвечать на сообщения
Вы не можете редактировать свои сообщения
Вы не можете удалять свои сообщения
Вы не можете голосовать в опросах
Вы не можете прикреплять файлы к сообщениям
Вы не можете скачивать файлы