Вселенная Стивена Хокинга / The Theory of Everything (Джеймс Марш) [2014 г., Драма, Мелодрама, Биография, HDRip] [Чистый звук]

Ответить на тему
 

SNation ®

Стаж: 4 года 4 месяца

Сообщений: 81

Симпатии: 70

Вселенная Стивена Хокинга / The Theory of Everything--«The incredible story of Jane and Stephen Hawking»-- Год выпуска: 2014
Страна: Великобритания
Жанр: Драма, Мелодрама, Биография
Продолжительность: 02:03:25
Перевод: Дублированный [Чистый звук] Официальный-Режиссер: Джеймс Марш-В ролях: Эдди Редмэйн, Фелисити Джонс, Чарли Кокс, Эмили Уотсон, Том Прайор, Софи Перри, Finlay Wright-Stephens, Гарри Ллойд, Элис Орр-Юинг, Дэвид Тьюлис
Описание: Стивен Хокинг — один из самых известных в мире учёных, крупнейший исследователь чёрных дыр и создатель теории большого взрыва, а также прикованный к инвалидному креслу человек, список подвижных частей тела которого ограничивается одним пальцем и несколькими мышцами лица. Фильм рассказывает историю совместной жизни Стивена и его первой жены — Джейн Хокинг.- -Качество: HDRip
Формат: AVI
Видео кодек: XviD
Аудио кодек: AC3
Видео: XviD, 1296 Кбит/с, 720x304, 23.976 fps
Аудио: AC3, 48.00 kHz, 384 kb/s (2 ch)-

MediaInfo

General
Complete name                            : D:\The Theory of Everything.2014.D.HDRip.1400MB.avi
Format                                   : AVI
Format/Info                              : Audio Video Interleave
File size                                : 1.46 GiB
Duration                                 : 2h 3mn
Overall bit rate                         : 1 689 Kbps
Writing application                      : VirtualDubMod 1.5.10.2 (build 2540/release)
Writing library                          : VirtualDubMod build 2540/release
Video
ID                                       : 0
Format                                   : MPEG-4 Visual
Format profile                           : Advanced [email protected]
Format settings, BVOP                    : 2
Format settings, QPel                    : No
Format settings, GMC                     : No warppoints
Format settings, Matrix                  : Default (MPEG)
Codec ID                                 : XVID
Codec ID/Hint                            : XviD
Duration                                 : 2h 3mn
Bit rate                                 : 1 296 Kbps
Width                                    : 720 pixels
Height                                   : 304 pixels
Display aspect ratio                     : 2.35:1
Frame rate                               : 23.976 fps
Color space                              : YUV
Chroma subsampling                       : 4:2:0
Bit depth                                : 8 bits
Scan type                                : Progressive
Compression mode                         : Lossy
Bits/(Pixel*Frame)                       : 0.247
Stream size                              : 1.12 GiB (77%)
Writing library                          : XviD 1.2.1 (UTC 2008-12-04)
Audio
ID                                       : 1
Format                                   : AC-3
Format/Info                              : Audio Coding 3
Mode extension                           : CM (complete main)
Format settings, Endianness              : Big
Codec ID                                 : 2000
Duration                                 : 2h 3mn
Bit rate mode                            : Constant
Bit rate                                 : 384 Kbps
Channel(s)                               : 2 channels
Channel positions                        : Front: L R
Sampling rate                            : 48.0 KHz
Bit depth                                : 16 bits
Compression mode                         : Lossy
Stream size                              : 339 MiB (23%)
Alignment                                : Split accross interleaves
Interleave, duration                     : 42 ms (1.00 video frame)
Interleave, preload duration             : 500 ms

Скриншоты

Создавать темы 02-Мар-2015 18:54

[Профиль]  [ЛС] 

SattaNNa

Стаж: 6 лет 5 месяцев

Сообщений: 14

Дайте скачать ребята сиды не раздают раздачи со всем нет

Создавать темы 19-Фев-2017 00:12

[Профиль]  [ЛС] 
Показать сообщения:    
Ответить на тему

Текущее время: 17-Авг 10:44

Часовой пояс: UTC + 5



Вы не можете начинать темы
Вы не можете отвечать на сообщения
Вы не можете редактировать свои сообщения
Вы не можете удалять свои сообщения
Вы не можете голосовать в опросах
Вы не можете прикреплять файлы к сообщениям
Вы не можете скачивать файлы