Баскетбол Куроко 3 / Kuroko no Basuke 3 / Kuroko No Basket 3rd Season / Kuroko's Basketball 3 [TV] [25 из 25] [Без хардсаба] [RUS(ext), JAP] [2015 г., Сёнен, Спорт, Комедия, HDTVRip] [720p]

Ответить на тему
 

[email protected] ®

Стаж: 4 года 3 месяца

Сообщений: 336

Симпатии: 143

-
Страна: Япония
Год выпуска: 2014 г.
Жанр: Cёнен, спорт, комедия
Продолжительность: ТВ 25 эп., 25 мин.-Режиссер: Тада Сюнсукэ
Автор оригинала: Фудзимаки Тадатоси
Студия: -Описание: Зимний кубок не за горами, он — цель героев, ставших сильнее и опытнее благодаря усердным тренировкам и прошедшим играм с другими школами. Но столь лакомый кусочек вряд ли останется без внимания, ведь соперники тоже не стояли на месте все это время. Поверженные во втором сезоне стали лишь стимулом для других команд, «поколение чудес» ещё покажет себя на площадке. А посему Сэйрин вместе с знаменитыми Куроко и Кагами потребуется приложить немало усилий, дабы сокрушить всех асов, их школы и вырвать победу!-Информационные ссылки: AniDB | World Art | MAL-Качество: HDTVRip
Формат: mp4
Тип релиза: Без хардсаба
Озвучка: Primary Alex-Видео: x264 [8 bit], 1280x720, ~1782 kbps, 23.976 fps
Аудио JAP: AAC, 192 kbps, 48 KHz, 2 ch
Аудио RUS: AAC, 192 kbps, 48 KHz, 2 ch (внешним файлом) - Primary Alex-

MediaInfo

General
Complete name                  : F:\Video\Аниме\Kuroko no Basuke 3\[Leopard-Raws] Kuroko no Basuke 3 - 01 RAW (MBS 1280x720 x264 AAC).mp4
Format                         : MPEG-4
Format profile                 : Base Media
Codec ID                       : isom
File size                      : 346 MiB
Duration                       : 24mn 29s
Overall bit rate mode          : Variable
Overall bit rate               : 1 978 Kbps
Encoded date                   : UTC 2015-01-11 07:40:54
Tagged date                    : UTC 2015-01-11 07:40:54
Video
ID                             : 1
Format                         : AVC
Format/Info                    : Advanced Video Codec
Format profile                 : [email protected]
Format settings, CABAC         : Yes
Format settings, ReFrames      : 4 frames
Codec ID                       : avc1
Codec ID/Info                  : Advanced Video Coding
Duration                       : 24mn 29s
Bit rate                       : 1 782 Kbps
Maximum bit rate               : 15.0 Mbps
Width                          : 1 280 pixels
Height                         : 720 pixels
Display aspect ratio           : 16:9
Frame rate mode                : Constant
Frame rate                     : 23.976 fps
Color space                    : YUV
Chroma subsampling             : 4:2:0
Bit depth                      : 8 bits
Scan type                      : Progressive
Bits/(Pixel*Frame)             : 0.081
Stream size                    : 312 MiB (90%)
Title                          : 264:[email protected]
Writing library                : x264 core 129 r2245+729M 1a52e03
Encoding settings              : cabac=1 / ref=4 / deblock=1:1:-1 / analyse=0x3:0x113 / me=umh / subme=9 / psy=1 / fade_compensate=0.00 / psy_rd=1.00:0.00 / mixed_ref=1 / me_range=24 / chroma_me=1 / trellis=2 / 8x8dct=1 / cqm=0 / deadzone=21,11 / fast_pskip=1 / chroma_qp_offset=-2 / threads=8 / lookahead_threads=1 / sliced_threads=0 / nr=0 / decimate=1 / interlaced=0 / bluray_compat=0 / constrained_intra=0 / fgo=0 / bframes=9 / b_pyramid=2 / b_adapt=2 / b_bias=0 / direct=1 / weightb=1 / open_gop=0 / weightp=2 / keyint=240 / keyint_min=24 / scenecut=40 / intra_refresh=0 / rc=crf / mbtree=0 / crf=18.5 / qcomp=0.72 / qpmin=0 / qpmax=69 / qpstep=4 / ip_ratio=1.40 / pb_ratio=1.30 / aq=1:0.85
Encoded date                   : UTC 2015-01-11 07:40:54
Tagged date                    : UTC 2015-01-11 07:40:56
Color primaries                : BT.709
Transfer characteristics       : BT.709
Matrix coefficients            : BT.709
Audio
ID                             : 2
Format                         : AAC
Format/Info                    : Advanced Audio Codec
Format profile                 : LC
Codec ID                       : 40
Duration                       : 24mn 29s
Bit rate mode                  : Variable
Bit rate                       : 192 Kbps
Maximum bit rate               : 226 Kbps
Channel(s)                     : 2 channels
Channel positions              : Front: L R
Sampling rate                  : 48.0 KHz
Compression mode               : Lossy
Stream size                    : 33.6 MiB (10%)
Language                       : Japanese
Encoded date                   : UTC 2015-01-10 21:25:44
Tagged date                    : UTC 2015-01-11 07:40:56

Скриншоты



Последний раз редактировалось: [email protected] (2015-07-15 12:18), всего редактировалось 6 раз(а)

Создавать темы 03-Мар-2015 08:05

[Профиль]  [ЛС] 

[email protected] ®

Стаж: 4 года 3 месяца

Сообщений: 336

Симпатии: 143

Сразу предупрежу, что озвучка делалась под другую равку, поэтому присутствует рассинхрон, но это легко поправимо. Просто в опциях ставите смещение звука на 10000 мс.

Пример

Шаг 1.

Шаг 2.

Создавать темы 03-Мар-2015 08:36

[Профиль]  [ЛС] 

[email protected] ®

Стаж: 4 года 3 месяца

Сообщений: 336

Симпатии: 143

9 cерия

Создавать темы 12-Мар-2015 22:31

[Профиль]  [ЛС] 

[email protected] ®

Стаж: 4 года 3 месяца

Сообщений: 336

Симпатии: 143

10 серия

Создавать темы 16-Мар-2015 01:31

[Профиль]  [ЛС] 

devil14

Стаж: 5 лет 2 месяца

Сообщений: 15

Симпатии: 7

[email protected], не подскажите пожалуйста как включить русскую озвучку ?

Создавать темы 26-Мар-2015 12:05

[Профиль]  [ЛС] 

[email protected] ®

Стаж: 4 года 3 месяца

Сообщений: 336

Симпатии: 143

devil14, конечно, вот тема с ответом на ваш вопрос.

Создавать темы 26-Мар-2015 12:20

[Профиль]  [ЛС] 

[email protected] ®

Стаж: 4 года 3 месяца

Сообщений: 336

Симпатии: 143

11-14 серия

Создавать темы 14-Апр-2015 08:49

[Профиль]  [ЛС] 

HiRO

Стаж: 2 года 7 месяцев

Сообщений: 3

Симпатии: 3

залейте весь сезон плиз.

Создавать темы 09-Июл-2015 12:21

[Профиль]  [ЛС] 

[email protected] ®

Стаж: 4 года 3 месяца

Сообщений: 336

Симпатии: 143

HiRO, постараюсь в выходные залить, ибо старые файлы утеряны, и надо заново выкачивать все (другие мои релизы тоже)

Создавать темы 09-Июл-2015 18:02

[Профиль]  [ЛС] 

HiRO

Стаж: 2 года 7 месяцев

Сообщений: 3

Симпатии: 3

[email protected], спс.

Создавать темы 11-Июл-2015 11:27

[Профиль]  [ЛС] 

[email protected] ®

Стаж: 4 года 3 месяца

Сообщений: 336

Симпатии: 143

Релиз завершен.
P.S. Я сегодня уезжаю на недельку, так что стабильно стоять на раздаче не получится, только по вечерам, когда домашние дома.

Создавать темы 15-Июл-2015 12:22

[Профиль]  [ЛС] 
Показать сообщения:    
Ответить на тему

Текущее время: 24-Окт 09:07

Часовой пояс: UTC + 5



Вы не можете начинать темы
Вы не можете отвечать на сообщения
Вы не можете редактировать свои сообщения
Вы не можете удалять свои сообщения
Вы не можете голосовать в опросах
Вы не можете прикреплять файлы к сообщениям
Вы не можете скачивать файлы