Исход: Цари и боги / Exodus: Gods and Kings (Ридли Скотт / Ridley Scott) [2014, Великобритания, США, Испания, боевик, драма, приключения, WEB-DLRip] (iTunes)

Ответить на тему
 

Suxrob89 ®

Стаж: 7 лет 1 месяц

Сообщений: 933

Симпатии: 564

-Исход: Цари и боги / Exodus: Gods and Kings-«Он бросил вызов империи и изменил мир»- Страна: Великобритания, США, Испания
Жанр: боевик, драма, приключения
Год выпуска: 2014
Продолжительность: 02:20:01
Перевод: Дублированное [iTunes]
Cубтитры: нет-Режиссер: Ридли Скотт / Ridley Scott-В ролях: Кристиан Бэйл, Джоэл Эдгертон, Джон Туртурро, Аарон Пол, Бен Мендельсон, Мария Вальверде, Сигурни Уивер, Бен Кингсли, Хиам Аббасс, Исаак Эндрюс-Описание: Ветхозаветная история о великом пророке Моисее и освобождении еврейского народа из египетского плена. Моисей появился на свет в те времена, когда фараон приказал убивать всех новорожденных мальчиков еврейского происхождения. Чтобы спасти его, мать положила малыша в корзину из тростника и отправила вниз по Нилу. Ребенка нашла дочь фараона, которая усыновила его и растила рядом с Рамзесом — будущим фараоном. Много лет спустя, став мужчиной, Моисей бежит из Египта, а затем возвращается туда по велению Господа, чтобы избавить свой народ от оков рабства…- -Качество: WEB-DLRip
Формат: AVI
Видео: 1162 Kb/s, 720x304
Аудио: AC3, 128 Kb/s (2 ch)

MI

I:\1sh0d.Car1.i.B0gi.2014.D.WEB-DLRip.1400MB.avi
General
Complete name : I:\1sh0d.Car1.i.B0gi.2014.D.WEB-DLRip.1400MB.avi
Format : AVI
Format/Info : Audio Video Interleave
File size : 1.37 GiB
Duration : 2h 30mn
Overall bit rate : 1 299 Kbps
Writing application : VirtualDubMod 1.5.10.3 | www.virtualdub-fr.org || (build 2550/release)
Writing library : VirtualDubMod build 2550/release
Video #0
ID : 0
Format : MPEG-4 Visual
Format profile : Advanced [email protected]
Format settings, BVOP : 2
Format settings, QPel : No
Format settings, GMC : No warppoints
Format settings, Matrix : Default (MPEG)
Codec ID : XVID
Codec ID/Hint : XviD
Duration : 2h 30mn
Bit rate : 1 162 Kbps
Width : 720 pixels
Height : 304 pixels
Display aspect ratio : 2.35:1
Frame rate : 23.976 fps
Color space : YUV
Chroma subsampling : 4:2:0
Bit depth : 8 bits
Scan type : Progressive
Compression mode : Lossy
Bits/(Pixel*Frame) : 0.221
Stream size : 1.22 GiB (89%)
Writing library : XviD 1.2.1 (UTC 2008-12-04)
Audio #1
ID : 1
Format : AC-3
Format/Info : Audio Coding 3
Mode extension : CM (complete main)
Format settings, Endianness : Big
Codec ID : 2000
Duration : 2h 30mn
Bit rate mode : Constant
Bit rate : 128 Kbps
Channel(s) : 2 channels
Channel positions : Front: L R
Sampling rate : 48.0 KHz
Bit depth : 16 bits
Compression mode : Lossy
Stream size : 138 MiB (10%)
Alignment : Split accross interleaves
Interleave, duration : 42 ms (1.00 video frame)
Interleave, preload duration : 500 ms

Скриншоты

Создавать темы 04-Мар-2015 12:21

[Профиль]  [ЛС] 

trololo

Стаж: 4 года 6 месяцев

Сообщений: 62

Симпатии: 58

о давно ждал спс

Создавать темы 04-Мар-2015 19:32

[Профиль]  [ЛС] 

Tricks

Стаж: 4 года 10 месяцев

Сообщений: 602

Симпатии: 21

ну и как фильм?отпишитесь

Создавать темы 04-Мар-2015 20:04

[Профиль]  [ЛС] 

Страх

Стаж: 3 года 11 месяцев

Сообщений: 1131

Симпатии: 448

"Что для тебя счастье" думаю это и есть основной смысл фильма и основная фраза в фильме, пусть и ничего нового про историю Моисея вы тут не увидите, но на удивление фильм получился таким хорошим, и без всяких эффектов. Он не лучший из фильмов в этом направления, т.е про религию, но ради пару секунд концовки
стоит посмотреть.-Евреи не возгордитесь, ибо смерть детей врагов ваших ради мести рабства не есть хорошо.
Ну о чем я), ах да о фильме, фильм слабый, местами скучный, но при этом нет желание отключить и нет ощущения когда именно терпишь фильм, Кристиан Бэйлу золотая ветвь Канского кинофестиваля за такую сыгранную классную роль, но увы до Оскара не дотягивает.-Думаю не проспойлерить ничего, в принципе что тут спойлерить, все то же самое) только по другому).

Создавать темы 04-Мар-2015 23:50

[Профиль]  [ЛС] 

Страх

Стаж: 3 года 11 месяцев

Сообщений: 1131

Симпатии: 448

Сухроб можешь оформление поменять т. е постерик на такое поменять?
-- -
[align=center][img]http://img.tas-ix.net/images/2014/09/14/SGEDs.png[/img][/align]
[hr]
[hr]
[align=center][img]http://img.tas-ix.net/images/2014/09/14/bEXkS7x.png[/img][/align]
[hr]

Создавать темы 04-Мар-2015 23:52

[Профиль]  [ЛС] 

Suxrob89 ®

Стаж: 7 лет 1 месяц

Сообщений: 933

Симпатии: 564

Страх, Увы не могу модераторы запретили изменят релиз

Создавать темы 05-Мар-2015 06:31

[Профиль]  [ЛС] 

trololo

Стаж: 4 года 6 месяцев

Сообщений: 62

Симпатии: 58

почему скорости нету вообще уже 2 дня на 2кб стоит закачка

Создавать темы 05-Мар-2015 12:56

[Профиль]  [ЛС] 

lotto

Стаж: 7 лет 8 месяцев

Сообщений: 221

Симпатии: 409

Фильм воспринимается как художественный вымысел, по мотивам ветхого завета. Не опираясь на исторические реалии 18 Египетской династии, которая правила в период большей части жизни Моисея.
Старался опираться на известные исторические данные.
Согласно источникам Моисей прожил 120 лет, родился в 1392 году до н.э., умер в 1272 году до н.э. Его жизнь делится на три этапа и каждый по 40 лет.
Первый этап - Жизнь в семье фараонов, обучение, посвящение в таинства наук и жречества.
Есть интересные данные, во времена египетской цивилизации существовал тайный орден халдеев (жрецы), которые были связаны с жрецами Месопотамии, Ирана, и Индии -потомками Ариев.
Второй этап - Изгнание, приходится на правление фараона реформатора Эхнатона (более подробно об этом описано в книге Фрейда "Моисей и монотеизм"). Советую почитать об этом, много интересного можно узнать. Эхнатон фактически решил перейти к монотеизму.
Третий этап - Исход евреев, приходится на распад 18 династии, последним представителем был Хоремхеб, военачальник в правлении Эхнатона, активный сторонник уничтожения реформ Эхнатона и возврата старых традиций.
Далее наступает правление 19 династии - Рамзес I.
Исходя из этого, реалистично выглядит, что Моисей был жрецом Атона (представителем халдеев), который встал на защиту семитских племен, оказав сильное влияние на иудаизм.
P.S. Когда родился Иисус, волхвы принесшие дары были халдеями.

Создавать темы 05-Мар-2015 13:47

[Профиль]  [ЛС] 
Показать сообщения:    
Ответить на тему

Текущее время: 20-Сен 05:24

Часовой пояс: UTC + 5



Вы не можете начинать темы
Вы не можете отвечать на сообщения
Вы не можете редактировать свои сообщения
Вы не можете удалять свои сообщения
Вы не можете голосовать в опросах
Вы не можете прикреплять файлы к сообщениям
Вы не можете скачивать файлы