Город героев / Big Hero 6 (Дон Холл, Крис Уильямс) [2014, США, мультфильм, фантастика, комедия, семейный, BDRip] (Dub : Профессиональный (полное дублирование) iTunes)

Ответить на тему
 

RampageStyle ®

Стаж: 4 года 9 месяцев

Сообщений: 36

Симпатии: 5

Город героев / Big Hero 6
Страна: США
Жанр: мультфильм, фантастика, комедия, семейный
Год выпуска: 2014
Продолжительность: 01:41:52
Перевод: Профессиональный (полное дублирование) iTunes
Cубтитры: Русские, английские
Режиссер: Дон Холл, Крис Уильямс
В ролях: Райан Поттер, Скотт Эдсит, Дэниэл Хенни, ТиДжей Миллер, Джейми Чанг, Дэймон Уайанс мл., Дженезис Родригез, Джеймс Кромуэлл, Алан Тьюдик, Майя Рудольф
Описание: Юный Хиро Хамада — прирожденный изобретатель и гений конструирования роботов. Вместе со старшим братом Тадаши они воплощают в жизнь самые передовые идеи в Техническом университете города будущего Сан-Франсокио. После серии загадочных событий друзья оказываются в центре коварного заговора. Отчаявшись, Хиро решает использовать веселого и добродушного экспериментального робота Бэймакса, перепрограммировав его в неуязвимую боевую машину.
Качество видео: BDRip
Формат видео: MKV
Видео: 1280x536 (2.40:1) at 23.976 fps, 2983 kbps avg, 0.181 bit/pixel
Аудио: 48 kHz; AC3 Dolby Digital; 3/2 (L,C,R,l,r) + LFE ch; 384 kbps avg

MediaInfo

Format : Matroska
File size : 2.44 GiB
Duration : 1h 41mn
Overall bit rate : 3 435 Kbps
Movie name : -=Leonardo=-
Encoded date : UTC 2015-02-28 08:00:21
Writing application : mkvmerge v5.0.1 ('Es ist Sommer') built on Oct 23 2011 00:46:40
Writing library : libebml v1.2.2 + libmatroska v1.3.0
Cover : Yes
Video
ID : 1
Format : AVC
Format/Info : Advanced Video Codec
Format profile : [email protected]
Format settings, CABAC : Yes
Format settings, ReFrames : 9 frames
Muxing mode : Container [email protected]
Codec ID : V_MPEG4/ISO/AVC
Duration : 1h 41mn
Bit rate : 2 983 Kbps
Width : 1 280 pixels
Height : 536 pixels
Display aspect ratio : 2.35:1
Frame rate : 23.976 fps
Resolution : 8 bits
Colorimetry : 4:2:0
Scan type : Progressive
Bits/(Pixel*Frame) : 0.181
Stream size : 2.12 GiB (87%)
Writing library : x264 core 125 r2208 d9d2288
Encoding settings : cabac=1 / ref=9 / deblock=1:-3:-3 / analyse=0x3:0x133 / me=umh / subme=11 / psy=1 / psy_rd=1.00:0.00 / mixed_ref=1 / me_range=32 / chroma_me=1 / trellis=2 / 8x8dct=1 / cqm=0 / deadzone=21,11 / fast_pskip=0 / chroma_qp_offset=-2 / threads=12 / lookahead_threads=2 / sliced_threads=0 / nr=0 / decimate=1 / interlaced=0 / bluray_compat=0 / constrained_intra=0 / bframes=8 / b_pyramid=2 / b_adapt=2 / b_bias=0 / direct=1 / weightb=1 / open_gop=0 / weightp=2 / keyint=250 / keyint_min=23 / scenecut=40 / intra_refresh=0 / rc=crf / mbtree=0 / crf=17.5 / qcomp=0.60 / qpmin=0 / qpmax=69 / qpstep=4 / ip_ratio=1.40 / pb_ratio=1.30 / aq=1:1.00
Audio
ID : 2
Format : AC-3
Format/Info : Audio Coding 3
Codec ID : A_AC3
Duration : 1h 41mn
Bit rate mode : Constant
Bit rate : 384 Kbps
Channel(s) : 6 channels
Channel positions : Front: L C R, Surround: L R, LFE
Sampling rate : 48.0 KHz
Stream size : 280 MiB (11%)
Language : Russian
Text #1
ID : 3
Format : UTF-8
Codec ID : S_TEXT/UTF8
Codec ID/Info : UTF-8 Plain Text
Language : Russian
Text #2
ID : 4
Format : UTF-8
Codec ID : S_TEXT/UTF8
Codec ID/Info : UTF-8 Plain Text
Menu
00:00:00.000 : en:00:00:00.000
00:07:15.685 : en:00:07:15.685
00:14:37.835 : en:00:14:37.835
00:21:49.183 : en:00:21:49.183
00:24:32.888 : en:00:24:32.888
00:29:34.731 : en:00:29:34.731
00:36:58.091 : en:00:36:58.091
00:44:18.322 : en:00:44:18.322
00:50:49.088 : en:00:50:49.088
00:54:33.020 : en:00:54:33.020
01:00:44.140 : en:01:00:44.140
01:07:12.612 : en:01:07:12.612
01:11:54.644 : en:01:11:54.644
01:16:26.665 : en:01:16:26.665
01:24:44.162 : en:01:24:44.162
01:31:52.757 : en:01:31:52.757

Скриншоты



Создавать темы 05-Мар-2015 12:24

[Профиль]  [ЛС] 

Топик был перенесен из форума Зарубежное кино в форум HD-AVC
Mixer City

Создавать темы 05-Мар-2015 13:05

 

RampageStyle ®

Стаж: 4 года 9 месяцев

Сообщений: 36

Симпатии: 5

кто скачал пожалуйста оставайтесь на раздаче как можно дольше! Спасибо. Пусть Аллах бережет наших женщин и девушек. C праздником вас!!!

Создавать темы 07-Мар-2015 21:42

[Профиль]  [ЛС] 

RampageStyle ®

Стаж: 4 года 9 месяцев

Сообщений: 36

Симпатии: 5

Спасибо всем кто раздаёт!

Создавать темы 08-Мар-2015 13:01

[Профиль]  [ЛС] 

RampageStyle ®

Стаж: 4 года 9 месяцев

Сообщений: 36

Симпатии: 5

раздача с 19:00 до 24:00!

Создавать темы 09-Мар-2015 13:30

[Профиль]  [ЛС] 

RampageStyle ®

Стаж: 4 года 9 месяцев

Сообщений: 36

Симпатии: 5

Могу залить BDRip с весом 7 gb

Создавать темы 12-Мар-2015 19:13

[Профиль]  [ЛС] 

Aziizik

Стаж: 4 года 3 месяца

Сообщений: 23

Симпатии: 1

Дайте скорость пожалуйста

Создавать темы 08-Июл-2016 22:03

[Профиль]  [ЛС] 
Показать сообщения:    
Ответить на тему

Текущее время: 18-Окт 01:42

Часовой пояс: UTC + 5



Вы не можете начинать темы
Вы не можете отвечать на сообщения
Вы не можете редактировать свои сообщения
Вы не можете удалять свои сообщения
Вы не можете голосовать в опросах
Вы не можете прикреплять файлы к сообщениям
Вы не можете скачивать файлы