Black Mask 2 - City of Masks (Цуй Харк) [2002 г., боевик, фантастика, фентези, BDRip]

Ответить на тему
 

Baxa2009 ®

Стаж: 5 лет 4 месяца

Сообщений: 42

Симпатии: 15

Черная Маска 2: Город масок / Black Mask 2: City of Masks- -Страна: Гонконг, США
Жанр: боевик, фантастика, фантазия
Год выпуска: 2002
Продолжительность: 1:42:23
Перевод: Профессиональный (многоголосый закадровый) (ТВ3)
Cубтитры: нет-Режиссер: Цуй Харк-В ролях: Тобин Белл, Джон Полито, Тереза Херрера, Тайлер Мэйн, Эндрю Бринярски, Скотт Эдкинс, Роб Ван Дам, Шон Маркетт, Oris Erhuero, Роберт Аллен Мюкс, Майкл Бэйли Смит, Трейси Лордс, Энди Он, Сильвио Шимач, Sau Leung 'Blacky' Ko, Теренс Йин, Маркус Фокс

Описание: Никто не видел его лица. Никто не знает его настоящего имени, известно лишь прозвище, которое с проклятиями и страхом произносят преступники всех мастей — Черная маска. Супергерой с модифицированными генами, он обладает феноменальной реакцией, необыкновенной силой и полным равнодушием к боли. Неустрашимый борец со злом, черная маска — единственная преграда на пути глобального терроризма, пытающегося ввергнуть мир в хаос. Лишь ему под силу остановить банду безумцев, готовых привести в действие страшное генетическое оружие, способное вызвать на Земле волну чудовищных мутаций, и Черная Маска принимает бой…-Доп. информация: РЕЛИЗ ГРУППЫ uralmix-Качество видео: BDRip
Формат видео: AVI
Видео: 704x304 (2.32:1), 24 fps, XviD build 61 ~881 kbps avg, 0.17 bit/pixel
Аудио: 48 kHz, MPEG Layer 3, 2 ch, ~128.00 kbps avg-

MediaInfo

General
Format : AVI
Format/Info : Audio Video Interleave
File size : 746 MiB
Duration : 1h 42mn
Overall bit rate : 1 019 Kbps
Movie name : Black Mask 2 - City of Masks (2002)
Writing application : VirtualDubModRus 1.5.10.2 (build 2540/release)
Copyright : uralmix
Video
ID : 0
Format : MPEG-4 Visual
Format profile : Advanced [email protected]
Format settings, BVOP : Yes
Format settings, QPel : No
Format settings, GMC : No warppoints
Format settings, Matrix : Custom
Codec ID : XVID
Codec ID/Hint : XviD
Duration : 1h 42mn
Bit rate : 882 Kbps
Width : 704 pixels
Height : 304 pixels
Display aspect ratio : 2.35:1
Frame rate : 24.000 fps
Color space : YUV
Chroma subsampling : 4:2:0
Bit depth : 8 bits
Scan type : Progressive
Compression mode : Lossy
Bits/(Pixel*Frame) : 0.172
Stream size : 646 MiB (87%)
Writing library : XviD 61
Audio
ID : 1
Format : MPEG Audio
Format version : Version 1
Format profile : Layer 3
Mode : Joint stereo
Mode extension : MS Stereo
Codec ID : 55
Codec ID/Hint : MP3
Duration : 1h 42mn
Bit rate mode : Constant
Bit rate : 128 Kbps
Channel(s) : 2 channels
Sampling rate : 48.0 KHz
Compression mode : Lossy
Stream size : 93.6 MiB (13%)
Alignment : Aligned on interleaves
Interleave, duration : 42 ms (1.00 video frame)
Interleave, preload duration : 504 ms

Скриншот c названием фильма

Скриншоты




Создавать темы 05-Мар-2015 19:38

[Профиль]  [ЛС] 

Топик был перенесен из форума Зарубежное кино в форум Фильмы до 2010
Grock

Создавать темы 23-Мар-2015 10:27

 
Показать сообщения:    
Ответить на тему

Текущее время: 24-Авг 00:36

Часовой пояс: UTC + 5



Вы не можете начинать темы
Вы не можете отвечать на сообщения
Вы не можете редактировать свои сообщения
Вы не можете удалять свои сообщения
Вы не можете голосовать в опросах
Вы не можете прикреплять файлы к сообщениям
Вы не можете скачивать файлы