Снежная королева 2: Перезаморозка / Snow Queen 2 (Алексей Цицилин) [2014, Фэнтези, Приключения, Семейный, WEB-DLRip]

Ответить на тему
 

Fury_ ®

Стаж: 2 года 9 месяцев

Сообщений: 22

Симпатии: 14

Снежная королева 2: Перезаморозка / Snow Queen 2 Страна: Россия--Жанр: Фэнтези, Приключения, Семейный--Год выпуска: 2014--Продолжительность: 01:18:20--Перевод: Не требуется--Cубтитры: нет--Режиссер: Алексей Цицилин--
Роли озвучивали: Иван Охлобыстин, Нюша Шурочкина, Анна Хилькевич, Александр Уман, Игорь Бортник, Алексей Лихницкий, Роман Юнусов, Александр Гудков, Михаил Тихонов--
Описание: Тщеславный тролль Орм давно мечтает о лаврах героя, и наконец получает этот шанс: северный ветер грозит миру вечной зимой и похищает Марибель. Рука принцессы и королевство троллей достанутся тому, кто вызволит ее из снежного плена. Однажды Орм победил зиму с помощью друзей, теперь он хочет действовать в одиночку. На нем доспехи из сковородок, за ним — отряд трусливых троллей, а впереди — опасный путь к замку Снежной королевы. Но, к счастью, друзья не помнят обид: храбрая Герда, застенчивый Кай, удалая Альфида и весёлая Лута не бросят Орма в беде. А значит их ждут невероятные приключения!
-- 
--Качество видео: WEB-DL
Формат видео: AVI--Видео: 24 fps, XviD build 50 ~2106 kbps, 0.32 bit/pixel, 720x304
Аудио: 48 kHz, AC3 Dolby Digital, 3/2 (L,C,R,l,r) + LFE ch, ~384 kbps--

Media Info

General
Complete name : E:\Snegnaya.K0roleva.2014.O.WEB-DLRip.1400Mb.avi
Format : AVI
Format/Info : Audio Video Interleave
File size : 1.37 GiB
Duration : 1h 18mn
Overall bit rate : 2 499 Kbps
Writing application : VirtualDubMod 1.5.10.2 (build 2540/release)
Writing library : VirtualDubMod build 2540/release
Video
ID : 0
Format : MPEG-4 Visual
Format profile : Advanced [email protected]
Format settings, BVOP : 2
Format settings, QPel : No
Format settings, GMC : No warppoints
Format settings, Matrix : Default (MPEG)
Codec ID : XVID
Codec ID/Hint : XviD
Duration : 1h 18mn
Bit rate : 2 106 Kbps
Width : 720 pixels
Height : 304 pixels
Display aspect ratio : 2.35:1
Frame rate : 24.000 fps
Color space : YUV
Chroma subsampling : 4:2:0
Bit depth : 8 bits
Scan type : Progressive
Compression mode : Lossy
Bits/(Pixel*Frame) : 0.401
Stream size : 1.15 GiB (84%)
Writing library : XviD 1.2.1 (UTC 2008-12-04)
Audio
ID : 1
Format : AC-3
Format/Info : Audio Coding 3
Mode extension : CM (complete main)
Codec ID : 2000
Duration : 1h 18mn
Bit rate mode : Constant
Bit rate : 384 Kbps
Channel(s) : 6 channels
Channel positions : Front: L C R, Side: L R, LFE
Sampling rate : 48.0 KHz
Bit depth : 16 bits
Compression mode : Lossy
Stream size : 215 MiB (15%)
Alignment : Split accross interleaves
Interleave, duration : 42 ms (1.00 video frame)
Interleave, preload duration : 500 ms.

Скриншоты



Последний раз редактировалось: Fury_ (2015-03-06 23:34), всего редактировалось 4 раз(а)

Создавать темы 05-Мар-2015 21:12

[Профиль]  [ЛС] 

Топик был перенесен из форума Фильмы за 2014 в форум Мультфильмы
Mixer City

Создавать темы 06-Мар-2015 01:42

 

Fury_ ®

Стаж: 2 года 9 месяцев

Сообщений: 22

Симпатии: 14

как вам мульт?

Создавать темы 07-Мар-2015 17:25

[Профиль]  [ЛС] 
Показать сообщения:    
Ответить на тему

Текущее время: 15-Дек 13:26

Часовой пояс: UTC + 5



Вы не можете начинать темы
Вы не можете отвечать на сообщения
Вы не можете редактировать свои сообщения
Вы не можете удалять свои сообщения
Вы не можете голосовать в опросах
Вы не можете прикреплять файлы к сообщениям
Вы не можете скачивать файлы