Вот так подружка / Una Donna per Amica (Джованни Веронези) [2014, Италия, комедия, HDRip] (Dub)

Ответить на тему
 

Davron1402 ®

Стаж: 3 года 9 месяцев

Сообщений: 136

Симпатии: 122

Вот так подружка / Una Donna per Amica- Страна: Италия
Жанр: комедия
Год выпуска: 2014
Продолжительность: 01:28:20
Перевод: Профессиональный (дублированный)
Cубтитры: нет
Режиссер: Джованни Веронези
В ролях: Фабио Де Луиджи
Летиция Каста
Моника Скаттини
Джеппи Куччиари
Вирджиния Раффаель
Валерия Соларино
Валентина Лодовини
Адриано Джаннини
Антония Лискова
Флавио Монтруккио
Описание: Франческо и Клаудия, молодые, красивые и успешные, — друзья не разлей вода уже много лет. Между ними нет абсолютно никаких секретов. Они любят весело проводить время и дурачатся как малые дети. У Клаудии даже есть ключи от квартиры Франческо, куда она может заглянуть в любое время. Но однажды девушка знакомится с Джованни, и тот принимается настойчиво за ней ухаживать, а вскоре уже зовет замуж.
Доп. информация:
Сценарий: Джованни Веронези, Уго Кити
Продюсер: Доменико Прокаччи
Оператор: Арнальдо Катинари
Художник: Ливия Боргоньони, Джемма Масканьи, Массимилиано Стуриале
Монтаж: Джорджио Франкини-Качество видео: HDRip
Формат видео: AVI
Видео: xvid, 720 x 304 (2.35:1), 24.000 fps, 1 000 Kbps
Аудио: MPEG Audio, 44.1 KHz, 2 channels, 320 Kbps- IMDb: 5.10

MediaInfo

Расположение: D:\Клипы\Russ\Вот так подружка .avi
Имя файла: Вот так подружка .avi
Формат файла: .avi (AVI)
Размер файла: 841.71 MB
Длительность: 1h 28mn
Навигация по главам: Нет
Bitrate (все потоки): 1 332 Kbps
...при помощи: Lavf51.12.1
Название: Вот так подружка
Тип потока: Видео
Длительность: 01:28:20
Кодек: xvid
Кодек/ID: xvid
Размеры изображения: 720 x 304 (2.35:1)
Частота кадров: 24.000 fps
Размер потока: 632 MiB (75%)
Битрейт: 1 000 Kbps
Тип потока: Звук #1
Длительность: 01:28:20.689
Кодек: MPEG Audio
Кодек/Профиль: Layer 3
Кодек/ID: 55
Частота дискретизации: 44.1 KHz
Каналов: 2 channels
Битрейт: 320 Kbps
Битрейт/тип: Constant
Размер потока: 202 MiB (24%)
Метод сжатия: Lossy
Программа: LAME3.97

Скриншоты



Создавать темы 06-Мар-2015 17:53

[Профиль]  [ЛС] 

Tricks

Стаж: 4 года 11 месяцев

Сообщений: 602

Симпатии: 21

ну и как фильм?

Создавать темы 07-Мар-2015 08:20

[Профиль]  [ЛС] 

edgemza

Стаж: 6 лет 5 месяцев

Сообщений: 191

Симпатии: 7

Что-то на комедию не очень похоже! Наверно еще + мелодрама...

Создавать темы 09-Ноя-2015 13:11

[Профиль]  [ЛС] 

4niko

Стаж: 6 лет 11 месяцев

Сообщений: 78

Симпатии: 11

924584ну и как фильм?
на 5 из 10 :)

Создавать темы 09-Ноя-2015 18:31

[Профиль]  [ЛС] 
Показать сообщения:    
Ответить на тему

Текущее время: 17-Окт 08:59

Часовой пояс: UTC + 5



Вы не можете начинать темы
Вы не можете отвечать на сообщения
Вы не можете редактировать свои сообщения
Вы не можете удалять свои сообщения
Вы не можете голосовать в опросах
Вы не можете прикреплять файлы к сообщениям
Вы не можете скачивать файлы