Старухи (Геннадий Сидоров) [2003, Россия, драма, DVDRip] (Original Rus)

Ответить на тему
 

kat222000 ®

Стаж: 6 лет 7 месяцев

Сообщений: 608

Симпатии: 1055

-Старухи-Страна: Россия
Жанр: драма
Год выпуска: 2003
Продолжительность: 01:43:07-Перевод: Не требуется
Cубтитры: нет
Оригинальная аудиодорожка: русский-Режиссер: Геннадий Сидоров-В ролях: Сергей Макаров, Валентина Березуцкая, Галина Смирнова, Зоя Норкина, Тамара Климова, Нина Корнилова, Анастасия Любимова-Описание: В забытой богом русской деревне, вдали от городских хлопот, электричества и радио, живут несколько старух. Мужским вниманием, за исключением местного слабоумного пастуха Миколки, дамы не избалованы. Да и похоже весь внешний мир о них позабыл. Изредка заедет на очередные похороны непутевый родственник, зайдет за самогоном солдат или приедет танк. А старухам и то радость - дрова рубить не надо. И, несмотря на нищету своей красивой и тихой родины, они любят жизнь и живут как могут. Но однажды из утреннего тумана появится полная такжикских беженцев телега, а в ней два мужика - Хоттабыч и его сын, мастер на все руки.- -Качество видео: DVDRip
Формат видео: AVI
Видео кодек: Xvid
Аудио кодек: AC3
Видео: Xvid, 720x432, 29.97fps, 1438kbps
Аудио: Dolby AC3, 48000Hz, 6ch, 448kbps-

MediaInfo

General
Format : AVI
Format/Info : Audio Video Interleave
File size : 1.36 GiB
Duration : 1h 43mn
Overall bit rate : 1 895 Kbps
Writing application : VirtualDubMod 1.5.4.1 (build 2178/release)
Writing library : VirtualDubMod build 2178/release
Video
ID : 0
Format : MPEG-4 Visual
Format profile : Advanced [email protected]
Format settings, BVOP : Yes
Format settings, QPel : No
Format settings, GMC : No warppoints
Format settings, Matrix : Custom
Codec ID : XVID
Codec ID/Hint : XviD
Duration : 1h 43mn
Bit rate : 1 439 Kbps
Width : 720 pixels
Height : 432 pixels
Display aspect ratio : 1.667
Frame rate : 29.970 fps
Color space : YUV
Chroma subsampling : 4:2:0
Bit depth : 8 bits
Scan type : Progressive
Compression mode : Lossy
Bits/(Pixel*Frame) : 0.154
Stream size : 1.04 GiB (76%)
Writing library : XviD 1.2.0.dev47 (UTC 2006-11-01)
Audio
ID : 1
Format : AC-3
Format/Info : Audio Coding 3
Mode extension : CM (complete main)
Format settings, Endianness : Big
Codec ID : 2000
Duration : 1h 43mn
Bit rate mode : Constant
Bit rate : 448 Kbps
Channel(s) : 6 channels
Channel positions : Front: L C R, Side: L R, LFE
Sampling rate : 48.0 KHz
Bit depth : 16 bits
Compression mode : Lossy
Stream size : 330 MiB (24%)
Alignment : Split accross interleaves
Interleave, duration : 96 ms (2.88 video frames)
Interleave, preload duration : 96 ms
Language : Russian
-

Скриншоты



- - -

Создавать темы 06-Мар-2015 21:51

[Профиль]  [ЛС] 
Показать сообщения:    
Ответить на тему

Текущее время: 20-Ноя 20:35

Часовой пояс: UTC + 5



Вы не можете начинать темы
Вы не можете отвечать на сообщения
Вы не можете редактировать свои сообщения
Вы не можете удалять свои сообщения
Вы не можете голосовать в опросах
Вы не можете прикреплять файлы к сообщениям
Вы не можете скачивать файлы