Клест / Isuca (Иванага Акира) [10 из 10] [Rus] [Гамлетка Цезаревна, 9й Неизвестный] [2015г. комедия, этти, романтика, школа, мистика, HDTVRip] [720p]

Ответить на тему
 

Dj_mock ®

Стаж: 2 года 5 месяцев

Сообщений: 4

Симпатии: 3

IsucaКлест- Страна: Япония
Год: 2015
Жанр: комедия, этти, романтика, школа, мистика
Продолжительность: 10 эп. по 25мин.-Режиссер: Иванага Акира
Автор оригинала: Такахаси Осаму
Студия: -Описание: Шиничиро ищет работу, чтобы отплатить счета за квартиру. Его учительница предлагает ему работать у ее знакомых, просто убираясь у тех дома. Человеком, который соглашается принять Асано, оказывается Сакуя — 37-я глава клана Шимазу, чьей работой является изгнание и уничтожение мистических существ. Шиничиро случайно выпускает одно из существ, которое некогда запечатала Сакуя. Теперь этим двоим придется работать вместе, чтобы поймать его. Здесь и начинается наша комическая история об охоте за чудовищами!-Качество: HDTVRip
Формат видео: mp4
Тип релиза: Без хардсаба
Озвучивание: Гамлетка Цезаревна, 9й Неизвестный-Видео: x264 (8 bits), 1280х720, ~1800 kbps, 23.976 fps
Аудио: ААС, 48.0 kHz, 192 Kbps, 2ch-

MediaInfo

Format                                   : MPEG-4
Format profile                           : Base Media
Codec ID                                 : isom
File size                                : 339 MiB
Duration                                 : 23mn 59s
Overall bit rate mode                    : Variable
Overall bit rate                         : 1 972 Kbps
Encoded date                             : UTC 2015-01-23 13:46:19
Tagged date                              : UTC 2015-01-23 13:46:19
Writing application                      : Yamb 2.1.0.0 [http://yamb.unite-video.com]
Video
ID                                       : 1
Format                                   : AVC
Format/Info                              : Advanced Video Codec
Format profile                           : [email protected]
Format settings, CABAC                   : Yes
Format settings, ReFrames                : 4 frames
Codec ID                                 : avc1
Codec ID/Info                            : Advanced Video Coding
Duration                                 : 23mn 59s
Bit rate                                 : 1 776 Kbps
Maximum bit rate                         : 13.9 Mbps
Width                                    : 1 280 pixels
Height                                   : 720 pixels
Display aspect ratio                     : 16:9
Frame rate mode                          : Constant
Frame rate                               : 23.976 fps
Color space                              : YUV
Chroma subsampling                       : 4:2:0
Bit depth                                : 8 bits
Scan type                                : Progressive
Bits/(Pixel*Frame)                       : 0.080
Stream size                              : 305 MiB (90%)
Title                                    : 264
Writing library                          : x264 core 129 r2245+729M 1a52e03
Encoding settings                        : cabac=1 / ref=4 / deblock=1:1:-1 / analyse=0x3:0x113 / me=umh / subme=9 / psy=1 / fade_compensate=0.00 / psy_rd=1.00:0.00 / mixed_ref=1 / me_range=24 / chroma_me=1 / trellis=2 / 8x8dct=1 / cqm=0 / deadzone=21,11 / fast_pskip=1 / chroma_qp_offset=-2 / threads=8 / lookahead_threads=1 / sliced_threads=0 / nr=0 / decimate=1 / interlaced=0 / bluray_compat=0 / constrained_intra=0 / fgo=0 / bframes=9 / b_pyramid=2 / b_adapt=2 / b_bias=0 / direct=1 / weightb=1 / open_gop=0 / weightp=2 / keyint=240 / keyint_min=24 / scenecut=40 / intra_refresh=0 / rc=crf / mbtree=0 / crf=18.0 / qcomp=0.72 / qpmin=0 / qpmax=69 / qpstep=4 / ip_ratio=1.40 / pb_ratio=1.30 / aq=1:0.85
Encoded date                             : UTC 2015-01-23 18:56:26
Tagged date                              : UTC 2015-01-23 13:46:20
Color primaries                          : BT.709
Transfer characteristics                 : BT.709
Matrix coefficients                      : BT.709
Audio
ID                                       : 2
Format                                   : AAC
Format/Info                              : Advanced Audio Codec
Format profile                           : LC
Codec ID                                 : 40
Duration                                 : 23mn 59s
Bit rate mode                            : Variable
Bit rate                                 : 192 Kbps
Maximum bit rate                         : 196 Kbps
Channel(s)                               : 2 channels
Channel positions                        : Front: L R
Sampling rate                            : 48.0 KHz
Compression mode                         : Lossy
Stream size                              : 33.0 MiB (10%)
Language                                 : Russian
Encoded date                             : UTC 2015-01-23 13:46:20
Tagged date                              : UTC 2015-01-23 13:46:20

Скриншоты



Последний раз редактировалось: Dj_mock (2015-03-30 06:20), всего редактировалось 9 раз(а)

Создавать темы 06-Мар-2015 21:53

[Профиль]  [ЛС] 

Топик был перенесен из форума Аниме с озвучкой в форум Аниме онгоинги
[email protected]

Создавать темы 07-Мар-2015 12:37

 

Dj_mock ®

Стаж: 2 года 5 месяцев

Сообщений: 4

Симпатии: 3

Конец!

Создавать темы 22-Мар-2015 19:57

[Профиль]  [ЛС] 

Price

Стаж: 4 года 11 месяцев

Сообщений: 35

Симпатии: 5

скорости

Создавать темы 01-Май-2015 17:23

[Профиль]  [ЛС] 

TimaK

Стаж: 6 лет 3 месяца

Сообщений: 129

Симпатии: 23

Цензура! мой заклятый враг!

Создавать темы 01-Май-2015 20:02

[Профиль]  [ЛС] 

SoluSoull

Стаж: 2 года 5 месяцев

Сообщений: 379

Симпатии: 452

934273Цензура! мой заклятый враг!
унас общий враг, поверь)
БДрипы лучшие наши союзники

Создавать темы 01-Май-2015 20:43

[Профиль]  [ЛС] 

Yaxiko

Стаж: 2 года 3 месяца

Сообщений: 10

Симпатии: 9

пожалуйста дайте докачать!!!

Создавать темы 10-Июн-2015 00:47

[Профиль]  [ЛС] 
Показать сообщения:    
Ответить на тему

Текущее время: 18-Авг 14:01

Часовой пояс: UTC + 5



Вы не можете начинать темы
Вы не можете отвечать на сообщения
Вы не можете редактировать свои сообщения
Вы не можете удалять свои сообщения
Вы не можете голосовать в опросах
Вы не можете прикреплять файлы к сообщениям
Вы не можете скачивать файлы