Зимний путь (Сергей Тарамаев, Любовь Львова) [2012, Россия, драма, WEBRip] (Sub Eng + Original Rus)

Ответить на тему
 

kat222000 ®

Стаж: 6 лет 8 месяцев

Сообщений: 608

Симпатии: 1055

-Зимний путь-Страна: Россия
Жанр: драма
Год выпуска: 2012
Продолжительность: 01:35:06-Перевод: Не требуется
Cубтитры: английские
Оригинальная аудиодорожка: русский-Режиссер: Сергей Тарамаев, Любовь Львова-В ролях: Алексей Франдетти, Евгений Ткачук, Владимир Мишуков, Дмитрий Мухамадеев, Андрей Цымбалов, Александр Алексеевский, Игорь Войнаровский, Валерий Ткачук, Сергей Дорофеев, Наталия Павленкова и др.-Описание: Студент вокального отделения Эрик, одаренный певец, готовится к музыкальному конкурсу, на котором он должен исполнить песенный цикл Шуберта «Зимний путь». Действие истории разворачивается в зимней Москве за три дня до конкурса. Фильм «Зимний путь» — режиссерский дебют Сергея Тармаева и Любови Львовой.- -Качество видео: WEBRip
Формат видео: AVI
Видео кодек: Xvid
Аудио кодек: AC3
Видео: Xvid, 704x352, 25fps, 1864kbps
Аудио: Dolby AC3, 48000Hz, 2 ch, 192kbps
Формат субтитров: hardsub (неотключаемые)-

MediaInfo

General
Format : AVI
Format/Info : Audio Video Interleave
File size : 1.37 GiB
Duration : 1h 35mn
Overall bit rate : 2 067 Kbps
Writing application : VirtualDubMod 1.5.10.3 | www.virtualdub-fr.org || (build 2550/release)
Writing library : VirtualDubMod build 2550/release
Video
ID : 0
Format : MPEG-4 Visual
Format profile : Advanced [email protected]
Format settings, BVOP : Yes
Format settings, QPel : No
Format settings, GMC : No warppoints
Format settings, Matrix : Default (H.263)
Codec ID : XVID
Codec ID/Hint : XviD
Duration : 1h 35mn
Bit rate : 1 865 Kbps
Width : 704 pixels
Height : 352 pixels
Display aspect ratio : 2.000
Frame rate : 25.000 fps
Color space : YUV
Chroma subsampling : 4:2:0
Bit depth : 8 bits
Scan type : Progressive
Compression mode : Lossy
Bits/(Pixel*Frame) : 0.301
Stream size : 1.24 GiB (90%)
Writing library : XviD 1.2.1 (UTC 2008-12-04)
Audio
ID : 1
Format : AC-3
Format/Info : Audio Coding 3
Mode extension : CM (complete main)
Format settings, Endianness : Big
Codec ID : 2000
Duration : 1h 35mn
Bit rate mode : Constant
Bit rate : 192 Kbps
Channel(s) : 2 channels
Channel positions : Front: L R
Sampling rate : 48.0 KHz
Bit depth : 16 bits
Compression mode : Lossy
Stream size : 131 MiB (9%)
Alignment : Split accross interleaves
Interleave, duration : 40 ms (1.00 video frame)
Interleave, preload duration : 500 ms
-

Скриншоты



- - -

Создавать темы 06-Мар-2015 22:12

[Профиль]  [ЛС] 

vlacom

Стаж: 4 года 5 месяцев

Сообщений: 44

Симпатии: 21

kat222000, как всегда на высоте, спасибо=))

Создавать темы 07-Мар-2015 09:57

[Профиль]  [ЛС] 

kat222000 ®

Стаж: 6 лет 8 месяцев

Сообщений: 608

Симпатии: 1055

Уважаемый vlacom, СПАСИБО


Последний раз редактировалось: kat222000 (2015-03-08 23:41), всего редактировалось 1 раз

Создавать темы 07-Мар-2015 16:55

[Профиль]  [ЛС] 

kat222000 ®

Стаж: 6 лет 8 месяцев

Сообщений: 608

Симпатии: 1055

Уважаемые пользователи данного трекера, Я Вас закидаю Арт-хаус и авторским кино

Создавать темы 07-Мар-2015 17:05

[Профиль]  [ЛС] 

mukimov

Стаж: 5 лет 3 месяца

Сообщений: 15

Симпатии: 1

Спасибо! Отличный фильм. Музыка шикарна.

Создавать темы 12-Апр-2015 10:30

[Профиль]  [ЛС] 
Показать сообщения:    
Ответить на тему

Текущее время: 12-Дек 07:43

Часовой пояс: UTC + 5



Вы не можете начинать темы
Вы не можете отвечать на сообщения
Вы не можете редактировать свои сообщения
Вы не можете удалять свои сообщения
Вы не можете голосовать в опросах
Вы не можете прикреплять файлы к сообщениям
Вы не можете скачивать файлы