Дом с паранормальными явлениями / A Haunted House (Майкл Тиддес / Michael Tiddes) [2013, США, комедия, ужасы, HDRip] (Dub) (Sub Eng + Original Eng)

Ответить на тему
 

Martin888 ®

Стаж: 2 года 6 месяцев

Сообщений: 3

Симпатии: 4

Дом с паранормальными явлениями / A Haunted House-«Здесь должен быть слоган»- Страна: США
Жанр: комедия, ужасы
Год выпуска: 2013
Продолжительность: 1:26:25
Перевод: Профессиональный (дублированный) [Лицензия]
Cубтитры: английские
Оригинальная аудиодорожка: английский-Режиссер: Майкл Тиддес / Michael Tiddes-В ролях: Марлон Уайанс, Эссенс Эткинс, Седрик «Развлекатель», Ник Свардсон, Дэвид Кокнер, Дейв Шеридан, Марлин Форте, Аланна Юбак, Эндрю Дэйли, Эффион Крокетт-Описание: Малкольм и Киша переезжают в дом своей мечты, но скоро понимают, что там уже проживает демон. Когда Киша становится одержимой, Малкольм обращается за помощью к священнику, экстрасенсу и команде охотников за привидениями.- -возраст: зрителям, достигшим 16 лет
рейтинг MPAA: лицам до 17 лет обязательно присутствие взрослого-Качество видео: HDRip
Формат видео: MKV-Видео: MPEG4, 1056x572, 23.976 fps, 2728 Kbps
Аудио: AC-3, 48.0 KHz, 448 Kbps, 6 channels [RUS]
Аудио 2: AC-3, 48.0 KHz, 448 Kbps, 6 channels [ENG]
Формат субтитров: softsub (SRT)

MediaInfo

General
Unique ID : 177841462747861930732469197623109197380 (0x85CB0514A02EE25A892676DEEF119E44)
Complete name : D:\Cinema\Äîì ñ ïàðàíîðìàëüíûìè ÿâëåíèÿìè.mkv
Format : Matroska
File size : 2.19 GiB
Duration : 1h 26mn
Overall bit rate : 3 621 Kbps
Movie name : -=POTROKS=-
Encoded date : UTC 2013-04-25 11:41:53
Writing application : mkvmerge v5.9.0 ('On The Loose') built on Dec 15 2012 16:39:58
Writing library : libebml v1.3.0 + libmatroska v1.4.0
Video
ID : 1
Format : AVC
Format/Info : Advanced Video Codec
Format profile : [email protected]
Format settings, CABAC : Yes
Format settings, ReFrames : 12 frames
Codec ID : V_MPEG4/ISO/AVC
Duration : 1h 26mn
Bit rate : 2 728 Kbps
Width : 1 056 pixels
Height : 572 pixels
Display aspect ratio : 16:9
Frame rate : 23.976 fps
Color space : YUV
Chroma subsampling : 4:2:0
Bit depth : 8 bits
Scan type : Progressive
Bits/(Pixel*Frame) : 0.188
Stream size : 1.60 GiB (73%)
Title : A Haunted House
Writing library : x264 core 125 r2208 d9d2288
Encoding settings : cabac=1 / ref=12 / deblock=1:-2:-1 / analyse=0x3:0x133 / me=umh / subme=11 / psy=1 / psy_rd=1.10:0.05 / mixed_ref=1 / me_range=32 / chroma_me=1 / trellis=2 / 8x8dct=1 / cqm=0 / deadzone=21,11 / fast_pskip=0 / chroma_qp_offset=-3 / threads=6 / lookahead_threads=1 / sliced_threads=0 / nr=0 / decimate=1 / interlaced=0 / bluray_compat=0 / constrained_intra=0 / bframes=13 / b_pyramid=2 / b_adapt=2 / b_bias=0 / direct=3 / weightb=1 / open_gop=0 / weightp=2 / keyint=240 / keyint_min=23 / scenecut=40 / intra_refresh=0 / rc_lookahead=100 / rc=2pass / mbtree=1 / bitrate=2728 / ratetol=1.0 / qcomp=0.70 / qpmin=0 / qpmax=69 / qpstep=3 / cplxblur=20.0 / qblur=0.5 / vbv_maxrate=20000 / vbv_bufsize=25000 / nal_hrd=none / ip_ratio=1.35 / aq=1:0.70
Language : English
Audio #1
ID : 2
Format : AC-3
Format/Info : Audio Coding 3
Mode extension : CM (complete main)
Codec ID : A_AC3
Duration : 1h 26mn
Bit rate mode : Constant
Bit rate : 448 Kbps
Channel(s) : 6 channels
Channel positions : Front: L C R, Side: L R, LFE
Sampling rate : 48.0 KHz
Bit depth : 16 bits
Compression mode : Lossy
Stream size : 277 MiB (12%)
Title : Dub | DD 5.1 @ 448 kbps
Language : Russian
Audio #2
ID : 3
Format : AC-3
Format/Info : Audio Coding 3
Mode extension : CM (complete main)
Codec ID : A_AC3
Duration : 1h 26mn
Bit rate mode : Constant
Bit rate : 448 Kbps
Channel(s) : 6 channels
Channel positions : Front: L C R, Side: L R, LFE
Sampling rate : 48.0 KHz
Bit depth : 16 bits
Compression mode : Lossy
Stream size : 277 MiB (12%)
Title : Original | DD 5.1 @ 448 kbps
Language : English
Text
ID : 4
Format : UTF-8
Codec ID : S_TEXT/UTF8
Codec ID/Info : UTF-8 Plain Text
Language : English

Скриншоты




Создавать темы 06-Мар-2015 22:34

[Профиль]  [ЛС] 

Вадим123

Стаж: 4 года 5 месяцев

Сообщений: 117

Симпатии: 7

Martin888, Пожалуйста, раздайте 518 мБ - (комп включен и качает ВСЕГДА) Потом пораздаю - сколько надо. мой IP адрес прописан в клиенте.

Создавать темы 31-Янв-2016 01:22

[Профиль]  [ЛС] 
Показать сообщения:    
Ответить на тему

Текущее время: 21-Сен 17:28

Часовой пояс: UTC + 5



Вы не можете начинать темы
Вы не можете отвечать на сообщения
Вы не можете редактировать свои сообщения
Вы не можете удалять свои сообщения
Вы не можете голосовать в опросах
Вы не можете прикреплять файлы к сообщениям
Вы не можете скачивать файлы