Клоун / Clown (Джонатан Уоттс / Jon Watts ) [2014, США, Канада, ужасы, драма, .WEB-DLRip.] (DVO : [DeadSno & den904][den904][dsa69])

Ответить на тему
 

igor1968 ®

Стаж: 5 лет 8 месяцев

Сообщений: 366

Симпатии: 197

Клоун / Clown Страна:
Жанр: ужасы, драма
Год выпуска: 2014
Продолжительность: 01:39:18.917
Перевод: Профессиональный (двухголосый закадровый) Доп. инфо о переводе [DeadSno & den904][ den904][dsa69]
Cубтитры: нет
Джонатан Уоттс / Jon Watts
Петер Стормаре, Элай Рот, Лаура Аллен, Элизабет Уитмер, Кристиан Дистефано, Джон МакДональд, Джулия А Лонг, Чак Шамата, Сара Схеффер, Энди Пауэрс
Любящий отец специально для дня рождения сына находит костюм клоуна, но он и не подозревал, что на этот костюм наложено проклятье, которое превращает его владельца в убийцу.
Доп. информация:
сценарий: Кристофер Д. Форд, Джонатан Уоттс
продюсер: Элай Рот, Коуди Райдер, Мак Каппуччино, ...
оператор: Мэттью Санто
композитор: Мэтт Велигдан
художник: Лиза Сопер, Шэйн Бучер, Гаррен Данбар
монтаж: Роберт Райанг
премьера (мир):
13 ноября 2014- -Качество видео: .WEB-DLRip.
Формат видео: AVI
Видео: 720x400 (1.80:1), 23.976 fps, XviD build 73 ~446996741 kbps avg, 221318.30 bit/pixel
Аудио: 48 kHz, AC3 Dolby Digital, 2/0 (L,R) ch, ~192.00 kbps avg [DeadSno & den904]
Аудио 2: 48 kHz, AC3 Dolby Digital, 2/0 (L,R) ch, ~192.00 kbps avg [ den904]

MediaInfo

General
Complete name : Clown.2014.L1.L2.WEB-DLRip.avi
Format : AVI
Format/Info : Audio Video Interleave
File size : 1.46 GiB
Duration : 1h 39mn
Overall bit rate : 2 100 Kbps
Writing application : VirtualDubMod 1.5.10.3 | www.virtualdub-fr.org || (build 2550/release)
Writing library : VirtualDubMod build 2550/release
Video
ID : 0
Format : MPEG-4 Visual
Format profile : Advanced [email protected]
Format settings, BVOP : Yes
Format settings, QPel : No
Format settings, GMC : No warppoints
Format settings, Matrix : Custom
Codec ID : XVID
Codec ID/Hint : XviD
Duration : 1h 39mn
Bit rate : 1 622 Kbps
Width : 720 pixels
Height : 400 pixels
Display aspect ratio : 16:9
Frame rate : 23.976 fps
Color space : YUV
Chroma subsampling : 4:2:0
Bit depth : 8 bits
Scan type : Progressive
Compression mode : Lossy
Bits/(Pixel*Frame) : 0.235
Stream size : 1.13 GiB (77%)
Writing library : XviD 73
Audio #1
ID : 1
Format : AC-3
Format/Info : Audio Coding 3
Mode extension : CM (complete main)
Format settings, Endianness : Big
Codec ID : 2000
Duration : 1h 39mn
Bit rate mode : Constant
Bit rate : 192 Kbps
Channel count : 2 channels
Channel positions : Front: L R
Sampling rate : 48.0 KHz
Bit depth : 16 bits
Compression mode : Lossy
Stream size : 136 MiB (9%)
Alignment : Split accross interleaves
Audio #2
ID : 2
Format : AC-3
Format/Info : Audio Coding 3
Mode extension : CM (complete main)
Format settings, Endianness : Big
Codec ID : 2000
Duration : 1h 39mn
Bit rate mode : Constant
Bit rate : 192 Kbps
Channel count : 2 channels
Channel positions : Front: L R
Sampling rate : 48.0 KHz
Bit depth : 16 bits
Compression mode : Lossy
Stream size : 136 MiB (9%)
Alignment : Split accross interleaves

Скриншот c названием фильма


Скриншоты



- -

Создавать темы 07-Мар-2015 00:07

[Профиль]  [ЛС] 

sailer

Стаж: 8 лет 2 месяца

Сообщений: 37

Симпатии: 17

А по интереснее скриншотов не было ?

Создавать темы 07-Мар-2015 13:45

[Профиль]  [ЛС] 
Показать сообщения:    
Ответить на тему

Текущее время: 24-Ноя 05:31

Часовой пояс: UTC + 5



Вы не можете начинать темы
Вы не можете отвечать на сообщения
Вы не можете редактировать свои сообщения
Вы не можете удалять свои сообщения
Вы не можете голосовать в опросах
Вы не можете прикреплять файлы к сообщениям
Вы не можете скачивать файлы