Моя супер-бывшая / My Super Ex-Girlfriend (Айвен Райтман) [2006, США, фантастика, мелодрама, комедия, ..., DVDRip] (Dub)

Ответить на тему
 

Davron1402 ®

Стаж: 3 года 7 месяцев

Сообщений: 136

Симпатии: 122

Моя супер-бывшая / My Super Ex-Girlfriend- Страна: США
Жанр: фантастика, мелодрама, комедия
Год выпуска: 2006
Продолжительность: 01:32:36
Перевод: Профессиональный (дублированный)
Cубтитры: нет
Режиссер: Айвен Райтман
В ролях: Ума Турман
Люк Уилсон
Анна Фэрис
Рэйн Уилсон
Эдди Иззард
Стелио Саванте
Майк Иорио
Марк Консуэлос
Ванда Сайкс
Маргарет Энн Флоренс
...
Описание:
Расставаться всегда тяжело, но иногда это еще и невероятно опасно. Встретив красавицу Дженни Джонсон, Мэтт Сондерс думает, что он наконец-то нашел женщину своей мечты. Однако, убедившись в том, что она настоящий супермен в юбке, Мэтт решает с ней расстаться, тем более что Дженни становится чересчур навязчивой и требовательной.
Но оказалось, что порвать с женщиной-суперменом не так-то легко. Чувствуя себя униженной и оскорбленной, Дженни использует все свои сверхъестественные способности, чтобы не только положить конец развивающемуся роману Мэтта с его сослуживицей Ханной, но и превратить жизнь своего «бывшего» в сущий ад…
Доп. информация:
Сценарий: Дон Пэйн
Продюсер: Арнон Милчен, Гэвин Полон, Билл Карраро
Оператор: Дон Бёрджесс
Композитор: Тедди Кастелуччи
Художник: Джейн Маски, Патриция Вудбридж, Лаура Джин Шеннон
Монтаж: Венди Грин Брикмонт, Шелдон Кан-Качество видео: DVDRip
Формат видео:mp4 (MPEG-4)
Видео: AVC, 720 x 304 (2.35:1), 24.000 fps, 768 Kbps
Аудио: AAC, 48.0 KHz, 2 channels, 128 Kbps- IMDb: 5.10

MediaInfo

Расположение: D:\Клипы\Russ\moja superbivhaya.mp4
Имя файла: moja superbivhaya.mp4
Формат файла: .mp4 (MPEG-4)
Размер файла: 596.51 MB
Длительность: 1h 32mn
Навигация по главам: Нет
Bitrate (все потоки): 901 Kbps
Файл создан...: UTC 2015-01-16 14:46:40
Название: moja superbivhaya
Тип потока: Видео
Длительность: 01:32:36
Кодек: AVC
Кодек/Профиль: [email protected]
Кодек/ID: avc1
Кодек/CABAC: No
Кодек/ReFrames: 1 frame
Размеры изображения: 720 x 304 (2.35:1)
Частота кадров: 24.000 fps
Размер потока: 509 MiB (85%)
Битрейт: 768 Kbps
Библиотека кодирования: er
Цветовое пространство: YUV
Тип развёртки: Progressive
Глубина: 8 bits
Тип потока: Звук #1
Язык: English
Длительность: 01:32:36.544
Кодек: AAC
Кодек/Профиль: LC
Кодек/ID: 40
Частота дискретизации: 48.0 KHz
Каналов: 2 channels
Битрейт: 128 Kbps
Битрейт/тип: Constant
Размер потока: 84.7 MiB (14%)
Метод сжатия: Lossy

Скриншоты






Последний раз редактировалось: Davron1402 (2015-03-07 23:15), всего редактировалось 1 раз

Создавать темы 07-Мар-2015 20:21

[Профиль]  [ЛС] 

Топик был перенесен из форума Фильмы до 2010 в форум Видео для мобильных устройств
Grock

Создавать темы 07-Мар-2015 22:25

 

Топик был перенесен из форума Видео для мобильных устройств в форум Фильмы до 2010
Davron1402

Создавать темы 07-Мар-2015 23:40

 
Показать сообщения:    
Ответить на тему

Текущее время: 18-Авг 13:44

Часовой пояс: UTC + 5



Вы не можете начинать темы
Вы не можете отвечать на сообщения
Вы не можете редактировать свои сообщения
Вы не можете удалять свои сообщения
Вы не можете голосовать в опросах
Вы не можете прикреплять файлы к сообщениям
Вы не можете скачивать файлы