Пёс Барбос и необычный кросс (Леонид Гайдай) [1961 г., Комедия, короткометражка, BDRip 720p]

Ответить на тему
 

Strickland ®

Стаж: 2 года 7 месяцев

Сообщений: 7

Симпатии: 3

Пёс Барбос и необычный кросс Страна: СССР
Студия: Мосфильм
Год выпуска: 1961
Жанр: Комедия, короткометражка
Продолжительность: 00:10:28
Перевод: Не требуется
Cубтитры: нет
Оригинальная аудиодорожка: Русский--Режиссер: Леонид Гайдай
В ролях: Георгий Вицин, Юрий Никулин, Евгений Моргунов
Описание: Что есть главное средство для поддержания мужской дружбы и просто для увлекательного времяпрепровождения? Правильно, это рыбалка. Трус, Балбес и Бывалый решили испытать эту радость жизни на себе, но на свою беду взяли они с собой пса Барбоса..--Качество: BDRip 720p
Формат: MKV
Видео кодек: H.264
Аудио кодек: DTS
Видео: 992x720 at 23.976 fps, MPEG-4 AVC, ~9500 kbps
Аудио: 48 kHz, DTS, 3/2 (L,C,R,l,r) + LFE ch, ~1536 kbps
--Доп. информация: Полная реставрация изображения и звука. Исходные киноматериалы подготовлены Госфильмофондом России. Покадровая цифровая реставрация изображения, ремастеринг звука и авторинг проведены объединением «Крупный план».

MediaInfo

General
Unique ID                      : 180178772068530028420345748786776925657 (0x878D2B53C4FB05B0B14807D57CEC65D9)
Format                         : Matroska
Format version                 : Version 4 / Version 2
File size                      : 824 MiB
Duration                       : 10mn 28s
Overall bit rate               : 11.0 Mbps
Movie name                     : Пёс Барбос и необычный кросс (1961)
Encoded date                   : UTC 2015-02-26 19:40:52
Writing application            : mkvmerge v7.4.0 ('Circles') 64bit built on Dec 12 2014 12:19:56
Writing library                : libebml v1.3.0 + libmatroska v1.4.1
DURATION                       : 00:10:28.032000000
NUMBER_OF_FRAMES               : 58884
NUMBER_OF_BYTES                : 118474608
_STATISTICS_WRITING_APP        : mkvmerge v7.4.0 ('Circles') 64bit built on Dec 12 2014 12:19:56
_STATISTICS_WRITING_DATE_UTC   : 2015-02-26 19:40:52
_STATISTICS_TAGS               : BPS DURATION NUMBER_OF_FRAMES NUMBER_OF_BYTES
Video
ID                             : 1
Format                         : AVC
Format/Info                    : Advanced Video Codec
Format profile                 : [email protected]
Format settings, CABAC         : Yes
Format settings, ReFrames      : 10 frames
Codec ID                       : V_MPEG4/ISO/AVC
Duration                       : 10mn 28s
Bit rate                       : 9 500 Kbps
Width                          : 992 pixels
Height                         : 720 pixels
Display aspect ratio           : 1.378
Frame rate mode                : Constant
Frame rate                     : 23.976 fps
Color space                    : YUV
Chroma subsampling             : 4:2:0
Bit depth                      : 8 bits
Scan type                      : Progressive
Bits/(Pixel*Frame)             : 0.555
Stream size                    : 695 MiB (84%)
Title                          : MPEG-4 (AVC)
Writing library                : x264 core 130 r2273 b3065e6
Encoding settings              : cabac=1 / ref=10 / deblock=1:-3:-3 / analyse=0x3:0x113 / me=umh / subme=10 / psy=1 / psy_rd=1.00:0.00 / mixed_ref=1 / me_range=32 / chroma_me=1 / trellis=2 / 8x8dct=1 / cqm=0 / deadzone=21,11 / fast_pskip=0 / chroma_qp_offset=-2 / threads=3 / lookahead_threads=1 / sliced_threads=0 / nr=0 / decimate=0 / interlaced=0 / bluray_compat=0 / constrained_intra=0 / bframes=7 / b_pyramid=2 / b_adapt=2 / b_bias=0 / direct=3 / weightb=1 / open_gop=0 / weightp=2 / keyint=240 / keyint_min=23 / scenecut=40 / intra_refresh=0 / rc=2pass / mbtree=0 / bitrate=9500 / ratetol=1.0 / qcomp=0.60 / qpmin=0 / qpmax=69 / qpstep=4 / cplxblur=20.0 / qblur=0.5 / ip_ratio=1.40 / pb_ratio=1.30 / aq=1:0.80
Language                       : Russian
Default                        : Yes
Forced                         : No
Audio
ID                             : 2
Format                         : DTS
Format/Info                    : Digital Theater Systems
Mode                           : 16
Format settings, Endianness    : Big
Codec ID                       : A_DTS
Duration                       : 10mn 28s
Bit rate mode                  : Constant
Bit rate                       : 1 509 Kbps
Channel(s)                     : 6 channels
Channel positions              : Front: L C R, Side: L R, LFE
Sampling rate                  : 48.0 KHz
Bit depth                      : 24 bits
Compression mode               : Lossy
Stream size                    : 113 MiB (14%)
Title                          : Russian
Language                       : Russian
Default                        : Yes
Forced                         : No

Скриншоты


Создавать темы 07-Мар-2015 20:58

[Профиль]  [ЛС] 

Grock

Стаж: 6 лет 8 месяцев

Сообщений: 637

Симпатии: 113

Старые добрые друзья "Трус, Балбес и Бывалый" )) Спасибо за раздачу

Создавать темы 07-Мар-2015 22:29

[Профиль]  [ЛС] 

Strickland ®

Стаж: 2 года 7 месяцев

Сообщений: 7

Симпатии: 3

924687Старые добрые друзья "Трус, Балбес и Бывалый" )) Спасибо за раздачу
Еще есть Операция "Ы" , Самогонщики если найдутся желающие залью позже BDRip 720p

Создавать темы 07-Мар-2015 22:32

[Профиль]  [ЛС] 

Strickland ®

Стаж: 2 года 7 месяцев

Сообщений: 7

Симпатии: 3

криптон, Валентин, dilmurod1 Отдача ? не ,не слышали !!!

Создавать темы 08-Мар-2015 13:58

[Профиль]  [ЛС] 
Показать сообщения:    
Ответить на тему

Текущее время: 19-Окт 23:06

Часовой пояс: UTC + 5



Вы не можете начинать темы
Вы не можете отвечать на сообщения
Вы не можете редактировать свои сообщения
Вы не можете удалять свои сообщения
Вы не можете голосовать в опросах
Вы не можете прикреплять файлы к сообщениям
Вы не можете скачивать файлы