50 оттенков серого / Fifty Shades of Grey (Сэм Тейлор-Джонсон) [2015, США, Драма, мелодрама, HDRip] (Dub) (Original Rus)

Страницы :  1, 2  След.

Ответить на тему
 

RUSLANBEK2010 ®

Стаж: 5 лет 2 месяца

Сообщений: 249

Симпатии: 33

50 оттенков серого / Fifty Shades of Grey
Страна: США
Жанр: Драма, мелодрама
Год выпуска: 2015
Продолжительность: 01:57:46
Перевод: Профессиональный (дублированный)
Cубтитры: Китайские
Оригинальная аудиодорожка: русский
Режиссер: Сэм Тейлор-Джонсон
В ролях: Дакота Джонсон, Джейми Дорнан, Дженнифер Или, Макс Мартини, Люк Граймс, Элоиза Мамфорд, Марша Гей Харден, Рэйчел Скарстен, Рита Ора, Каллум Кит Ренни, Дилан Нил, Эмили Фонда, Энн Мари ДеЛуис, Эндрю Эйрли, Виктор Расук
Описание: Анастейша Стил — скромная студентка, живущая вместе с близкой подругой-сокурсницей Кейт. За неделю до выпускного в университете, Анастейша, по просьбе заболевшей Кейт заменить её, берёт интервью у молодого красавца-миллиардера Кристиана Грея. Интервью складывается не очень удачно, и Анастейша не думает, что они когда-либо встретятся вновь. Неожиданно Грей появляется в хозяйственном магазине, где девушка работает продавцом. Их знакомство продолжается, и Анастейша постепенно узнаёт о тайных сексуальных увлечениях богача…
Качество видео: MPEG4
Формат видео: MP4
Видео: MPEG4 Video (H264) 1920x800 23.976fps 1696kbps [V: h264 main L4.0, yuv420p, 1920x800, 1696 kb/s]
Аудио: AAC 48000Hz stereo 123kbps [A: SoundHandler (aac lc, 48000 Hz, stereo, 123 kb/s)]

MediaInfo

Общее
Полное имя 50 оттенков серого.mp4
Формат : MPEG-4
Профиль формата : Base Media
Идентификатор кодека : isom
Размер файла : 1,53 Гбайт
Продолжительность : 2 ч. 0 м.
Режим общего битрейта : Переменный
Общий поток : 1825 Кбит/сек
Дата кодирования : UTC 2015-02-28 16:36:19
Дата пометки : UTC 2015-02-28 16:36:19
Видео
Идентификатор : 1
Формат : AVC
Формат/Информация : Advanced Video Codec
Профиль формата : [email protected]
Параметр CABAC формата : Да
Параметр ReFrames формата : 1 кадр
Идентификатор кодека : avc1
Идентификатор кодека/Информация : Advanced Video Coding
Продолжительность : 2 ч. 0 м.
Duration_FirstFrame : 125 мс.
Битрейт : 1697 Кбит/сек
Ширина : 1920 пикселей
Высота : 800 пикселей
Соотношение сторон : 2,40:1
Режим частоты кадров : Постоянный
Частота кадров : 23,976 кадра/сек
Цветовое пространство : YUV
Субдискретизация насыщенности : 4:2:0
Битовая глубина : 8 бит
Тип развёртки : Прогрессивная
Бит/(Пиксели*Кадры) : 0.046
Размер потока : 1,42 Гбайт (93%)
Библиотека кодирования : x264 core 129
Настройки программы : cabac=1 / ref=1 / deblock=1:0:0 / analyse=0x1:0x131 / me=dia / subme=2 / psy=1 / psy_rd=1.00:0.00 / mixed_ref=0 / me_range=16 / chroma_me=1 / trellis=0 / 8x8dct=0 / cqm=0 / deadzone=21,11 / fast_pskip=1 / chroma_qp_offset=0 / threads=1 / lookahead_threads=1 / sliced_threads=0 / nr=0 / decimate=1 / interlaced=0 / bluray_compat=0 / constrained_intra=0 / bframes=0 / weightp=2 / keyint=250 / keyint_min=25 / scenecut=40 / intra_refresh=0 / rc_lookahead=40 / rc=abr / mbtree=1 / bitrate=1697 / ratetol=1.0 / qcomp=0.60 / qpmin=10 / qpmax=51 / qpstep=4 / ip_ratio=1.41 / aq=1:1.00
Аудио
Идентификатор : 2
Формат : AAC
Формат/Информация : Advanced Audio Codec
Профиль формата : LC
Идентификатор кодека : 40
Продолжительность : 2 ч. 0 м.
Duration_FirstFrame : 64 мс.
Вид битрейта : Переменный
Битрейт : 124 Кбит/сек
Максимальный битрейт : 128 Кбит/сек
Каналы : 2 канала
Расположение каналов : Front: L R
Частота : 48,0 КГц
Метод сжатия : С потерями
Размер потока : 106 Мбайт (7%)

Скриншоты






Последний раз редактировалось: RUSLANBEK2010 (2015-03-13 22:04), всего редактировалось 2 раз(а)

Создавать темы 07-Мар-2015 22:29

[Профиль]  [ЛС] 

Phantomhive

Стаж: 4 года 4 месяца

Сообщений: 218

Симпатии: 10

мданеужели

Создавать темы 07-Мар-2015 23:32

[Профиль]  [ЛС] 

Babit

Стаж: 4 года

Сообщений: 70

Симпатии: 18

Скриншоты разные )

Создавать темы 07-Мар-2015 23:57

[Профиль]  [ЛС] 

porno_killer

Стаж: 6 лет 5 месяцев

Сообщений: 58

Симпатии: 2

как всегда половину вырезали ))

Создавать темы 08-Мар-2015 09:17

[Профиль]  [ЛС] 

Mixer City

Стаж: 6 лет 10 месяцев

Сообщений: 754

Симпатии: 63

RUSLANBEK2010, скриншоты по правилам: https://tas-ix.net/viewtopic.php?t=41311

Создавать темы 08-Мар-2015 19:01

[Профиль]  [ЛС] 

S1lence7777

Стаж: 4 года 8 месяцев

Сообщений: 15

Симпатии: 1

раздача будет или как ?

Создавать темы 08-Мар-2015 22:45

[Профиль]  [ЛС] 

Nurik_Nukus

Стаж: 4 года 9 месяцев

Сообщений: 66

Симпатии: 7

interesno ili net sv jdu

Создавать темы 08-Мар-2015 23:27

[Профиль]  [ЛС] 

black_drow

Стаж: 7 лет 1 месяц

Сообщений: 58

Симпатии: 8

Откройте раздачу плз пацаны

Создавать темы 11-Мар-2015 09:50

[Профиль]  [ЛС] 

vgulyaev

Стаж: 4 года 8 месяцев

Сообщений: 15

Симпатии: 2

RUSLANBEK2010 до оформи свой релиз, мы торент файл скачать не можем, раздача не идет!

Создавать темы 13-Мар-2015 14:21

[Профиль]  [ЛС] 

vgulyaev

Стаж: 4 года 8 месяцев

Сообщений: 15

Симпатии: 2

интересно фильм так же, как и остальные с вырезками?

Создавать темы 13-Мар-2015 14:23

[Профиль]  [ЛС] 

Топик был перенесен из форума Фильмы за 2015 в форум HD-AVC
Mixer City

Создавать темы 13-Мар-2015 23:26

 

jaska-3d

Стаж: 5 лет 10 месяцев

Сообщений: 250

Симпатии: 25

925684интересно фильм так же, как и остальные с вырезками?
да согласен, некоторые моменты отрезаны, но сам фильм прекрасен, роль девушки Анастейши и как она кусает губы ah .... ay

Создавать темы 28-Мар-2015 00:53

[Профиль]  [ЛС] 

KILKA

Стаж: 5 лет 4 месяца

Сообщений: 43

Симпатии: 1

У меня есть такойже фильм с продолжительностью 2 часа

Создавать темы 28-Мар-2015 08:06

[Профиль]  [ЛС] 

iamleon5

Стаж: 3 года 10 месяцев

Сообщений: 59

Симпатии: 50

927833У меня есть такойже фильм с продолжительностью 2 часа
и как называется,или быть может зальёте на трекер?

Создавать темы 30-Мар-2015 02:23

[Профиль]  [ЛС] 

Numonbek

Стаж: 4 года 6 месяцев

Сообщений: 57

Симпатии: 21

ребят скорост дайти

Создавать темы 26-Май-2015 16:11

[Профиль]  [ЛС] 
Показать сообщения:    
Ответить на тему

Текущее время: 23-Окт 13:12

Часовой пояс: UTC + 5



Вы не можете начинать темы
Вы не можете отвечать на сообщения
Вы не можете редактировать свои сообщения
Вы не можете удалять свои сообщения
Вы не можете голосовать в опросах
Вы не можете прикреплять файлы к сообщениям
Вы не можете скачивать файлы