На Помощь! / Help! (Ричард Лестер / Richard Lester) [1965, Великобритания, комедия, музыкальный, BDRip] [(Ричард Лестер / Richard Lester)[1965, Великобритания, мюзикл, комедия, приключения BDRip]] (MVO)

Ответить на тему
 

noclip59 ®

Стаж: 4 года 4 месяца

Сообщений: 9

Симпатии: 7

На Помощь! / Help! / (Ричард Лестер / Richard Lester)[1965, Великобритания, мюзикл, комедия, приключения BDRip]
Страна: Великобритания
Жанр: комедия, музыкальный
Год выпуска: 1965
Продолжительность: 01:32:15
Перевод: Профессиональный (многоголосый закадровый)
Cубтитры: нет
Режиссер: Ричард Лестер / Richard Lester
В ролях: Джон Леннон, Пол Маккартни, Джордж Харрисон, Ринго Старр, Лео Маккерн, Элинор Брон, Виктор Спинетти, Рой Киннеар, Джон Блутал, Патрик Каргилл, Элфи Басс, Уоррен Митчелл

Описание: Ринго Старр случайно завладевает кольцом, принадлежащим тайному жестокому культу. В этой религии таким кольцом обозначают человека, приговоренного к жертвоприношению. Кольцо приросло к пальцу и его невозможно снять. «Битлз» вынуждены скрываться от фанатиков, охотящихся за Ринго. Они обращаются за помощью к доктору Футу, безумному ученому. Когда тому не удается снять кольцо, он решает тоже завладеть им в научных целях. На помощь битлам приходит девушка по имени Ахме, изменница культа. Ахме утверждает, что кольцо не пристает к храбрецам, и будь Ринго смелее, проблем бы не возникло. Она предлагает снять кольцо с пальца при помощи маленькой дозы уменьшающего средства. По ошибке доза этого средства достается Полу МакКартни, и он на некоторое время становится лилипутом. Погоня за группой продолжается, музыканты пытаются обращаться в полицию, но она бессильна. Культисты в итоге захватывают Ринго, и, связав его, угрожают отомстить остальными участниками группы. В попытке спасти друзей Ринго проявляет мужество и снимает кольцо с пальца. Фильм заканчивается чехардой, в которой кольцо беспрестанно меняет владельца, за которым немедленно начинается охота.

Качество видео: BDRip
Формат видео: AVI
Видео: XviD, 720x432 (1.67:1), 23,976 fps, 1804 kbps avg
Аудио: AC3, 48 kHz, 448 kbps, 3/2 (L,C,R,l,r) + LFE ch

MediaInfo

Формат : AVI
Формат/Информация : Audio Video Interleave
Размер файла : 1,46 Гбайт
Продолжительность : 1 ч. 32 м.
Общий поток : 2262 Кбит/сек
Название фильма : The_Beatles_Help!_1965.XviD.BDRip.RusMVO.MetionInka
Режиссёр : rip by MetionInka
Жанр : Comedy/Musical
Программа кодирования : VirtualDubMod 1.5.10.3 | www.virtualdub-fr.org || (build 2550/release)
Формат оригинала/Имя : Help! 1965
Правообладатель : rutracker.org & All Films
Примечание : RusMVO
Видео
Идентификатор : 0
Формат : MPEG-4 Visual
Профиль формата : Advanced [email protected]
Параметр BVOP формата : 2
Параметр QPel формата : Нет
Параметр GMC формата : Без точки перехода
Параметр матрицы формата : Выборочная
Идентификатор кодека : XVID
Идентификатор кодека/Подсказка : XviD
Продолжительность : 1 ч. 32 м.
Битрейт : 1804 Кбит/сек
Ширина : 720 пикселей
Высота : 432 пикселя
Соотношение сторон : 1,667
Частота кадров : 23,976 кадра/сек
Цветовое пространство : YUV
Субдискретизация насыщенности : 4:2:0
Битовая глубина : 8 бит
Тип развёртки : Прогрессивная
Метод сжатия : С потерями
Бит/(Пиксели*Кадры) : 0.242
Размер потока : 1,16 Гбайт (80%)
Библиотека кодирования : XviD 73
Аудио
Идентификатор : 1
Формат : AC-3
Формат/Информация : Audio Coding 3
Расширение режима : CM (complete main)
Параметр Endianness формата : Big
Идентификатор кодека : 2000
Продолжительность : 1 ч. 32 м.
Вид битрейта : Постоянный
Битрейт : 448 Кбит/сек
Каналы : 6 каналов
Расположение каналов : Front: L C R, Side: L R, LFE
Частота : 48,0 КГц
Битовая глубина : 16 бит
Метод сжатия : С потерями
Размер потока : 296 Мбайт (20%)
Выравнивание : Разделение по промежуткам
Продолжительность промежутка : 42 мс. (1,00 видеокадр)
Время предзагрузки промежутка : 500 мс.

Скриншоты





Создавать темы 07-Мар-2015 23:48

[Профиль]  [ЛС] 

Топик был перенесен из форума Зарубежное кино в форум Фильмы до 2010
Mixer City

Создавать темы 08-Мар-2015 18:53

 
Показать сообщения:    
Ответить на тему

Текущее время: 18-Ноя 13:38

Часовой пояс: UTC + 5



Вы не можете начинать темы
Вы не можете отвечать на сообщения
Вы не можете редактировать свои сообщения
Вы не можете удалять свои сообщения
Вы не можете голосовать в опросах
Вы не можете прикреплять файлы к сообщениям
Вы не можете скачивать файлы