Человек-паук-Трилогия / Spider-Man-Trilogy (Сэм Рэйми / Sam Raimi) [2002-2007, США, фантастика, боевик, триллер, HDRip] (Dub)

Ответить на тему
 

spaun-shadow ®

Стаж: 4 года 6 месяцев

Сообщений: 218

Симпатии: 98

Год выпуска: 2002-2007
Страна: США
Жанр: фантастика, боевик, триллер
Перевод: Профессиональный (дублированный)
Cубтитры: нет
Режиссер: Сэм Рэйми / Sam Raimi

Человек паук / Spider-Man (2002)

Человек паук / Spider-Man «Turn your world upside down» Страна: США
Жанр: фантастика, боевик, триллер
Год выпуска: 2002
Продолжительность: 02:01:12
Перевод: Профессиональный (дублированный)
Cубтитры: нет
Режиссер: Сэм Рэйми / Sam Raimi
В ролях:
Тоби Магуайр, Уиллем Дефо, Кирстен Данст, Джеймс Франко, Клифф Робертсон, Розмари Харрис, Дж.К., Симмонс, Джо Манганьелло, Джерри Бекер, Билл Нанн
Описание:
Еще вчера Питер Паркер был обычным школьником, которого все считали неудачником и занудой, но в один прекрасный день с ним происходит чудо. Питера кусает паук — мутант, после чего с нескладным юношей происходит фантастическая метаморфоза! Невероятным образом обостряются все его чувства. Он обретает огромную силу и ловкость, а главное, умение — лазать по стенам и выбрасывать прочную как сталь паутину! Так Питер начинает новую жизнь в образе таинственного Человека-Паука, спасителя людей и грозы преступного мира. Но там, где есть супергерой, рано или поздно всегда объявляется и суперзлодей. И вскоре Человеку-Пауку придется сразиться с Зеленым Гоблином — террориризирующим город монстром на летающем глайдере. В этой великой битве решится не только их судьба, но и судьбы тысяч жителей города…- - HDRip
Исходник - BDRip (1080p)
AVI : XviD : AC3
720x400, 1780 kbps, 23,976 fps, 0.34 b/p
48000 Hz, 6-channel, 448 kbps

MediaInfo

Общее
Полное имя : D:\Spider_Man_Trilogy_Dub\Spider_man.avi
Формат : AVI
Формат/Информация : Audio Video Interleave
Профиль формата : OpenDML
Размер файла : 2,16 Гбайт
Продолжительность : 2 ч. 1 м.
Общий поток : 2555 Кбит/сек
Название фильма : Spider-man 1 2002
Жанр : Fantasy
Программа кодирования : VirtualDubMod 1.5.10.2 (build 2540/release)
Формат оригинала/Имя : Movie
Видео
Идентификатор : 0
Формат : MPEG-4 Visual
Профиль формата : Advanced [email protected]
Параметр BVOP формата : 1
Параметр QPel формата : Нет
Параметр GMC формата : Без точки перехода
Параметр матрицы формата : Default (MPEG)
Идентификатор кодека : XVID
Идентификатор кодека/Подсказка : XviD
Продолжительность : 2 ч. 1 м.
Битрейт : 2095 Кбит/сек
Ширина : 720 пикселей
Высота : 400 пикселей
Соотношение сторон : 16:9
Частота кадров : 23,976 кадра/сек
Цветовое пространство : YUV
Субдискретизация насыщенности : 4:2:0
Битовая глубина : 8 бит
Тип развёртки : Прогрессивная
Метод сжатия : С потерями
Бит/(Пиксели*Кадры) : 0.303
Размер потока : 1,77 Гбайт (82%)
Библиотека кодирования : XviD 1.2.1 (UTC 2008-12-04)
Аудио
Идентификатор : 1
Формат : AC-3
Формат/Информация : Audio Coding 3
Расширение режима : CM (complete main)
Параметр Endianness формата : Big
Идентификатор кодека : 2000
Продолжительность : 2 ч. 1 м.
Вид битрейта : Постоянный
Битрейт : 448 Кбит/сек
Каналы : 6 каналов
Расположение каналов : Front: L C R, Side: L R, LFE
Частота : 48,0 КГц
Битовая глубина : 16 бит
Метод сжатия : С потерями
Размер потока : 388 Мбайт (18%)
Выравнивание : Разделение по промежуткам
Продолжительность промежутка : 42 мс. (1,00 видеокадр)
Время предзагрузки промежутка : 500 мс.

Скриншоты



Человек паук 2 / Spider-Man 2 (2004)

Человек паук 2/ Spider-Man 2 «Take Another Spin In IMAX» Страна: США
Жанр: фантастика, боевик, триллер
Год выпуска: 2004
Продолжительность: 02:07:27
Перевод: Профессиональный (дублированный)
Cубтитры: нет
Режиссер: Сэм Рэйми / Sam Raimi
В ролях:
Тоби Магуайр, Кирстен Данст, Джеймс Франко, Альфред Молина, Розмари Харрис, Дж.К. Симмонс, Донна Мерфи, Дэниэл Гиллис, Дилан Бейкер, Билл Нанн
Описание:
С момента событий, произошедших в первом фильме, прошло два года. Тихоня Питер Паркер сталкивается с новыми проблемами: он борется со своим «даром и проклятьем», отчаянно пытаясь балансировать на грани двух своих жизней: метающего паутину супергероя Человека-Паука и обычного студента колледжа… Мучимый своими секретами, Питер понимает, что его отношения со всеми, кто ему дорог, в опасности или заходят в тупик. Его любовь к Мэри Джейн становится еще сильнее, обостряемая порывом Питера раскрыть ей свой секрет и признаться в любви. Дружба с Гарри осложняется горечью молодого Осборна по умершему отцу и всё большим желанием отомстить Человеку-Пауку. Даже любимая тетушка Мэй, у которой были нелегкие времена после смерти дяди Бена, начинает что-то подозревать насчет своего племянника. Жизнь Питера становится еще более сложной, когда он сталкивается с новым суперзлодеем — доктором Отто Октавиусом. Питер должен использовать все свои суперспособности, чтобы одолеть этого жестокого безумца с восемью конечностями…- - HDRip
Исходник - BDRip (1080p)
AVI : XviD : AC3
720x304, 1980 kbps, 23,976 fps, 0.38 b/p
48000 Hz, 6-channel, 448 kbps

MediaInfo

Общее
Полное имя : D:\Spider_Man_Trilogy_Dub\Spider_man_2.avi
Формат : AVI
Формат/Информация : Audio Video Interleave
Профиль формата : OpenDML
Размер файла : 2,17 Гбайт
Продолжительность : 2 ч. 7 м.
Общий поток : 2435 Кбит/сек
Название фильма : Spider-man 2 2004
Жанр : Fantasy
Программа кодирования : VirtualDubMod 1.5.10.2 (build 2540/release)
Формат оригинала/Имя : Movie
Видео
Идентификатор : 0
Формат : MPEG-4 Visual
Профиль формата : Advanced [email protected]
Параметр BVOP формата : 1
Параметр QPel формата : Нет
Параметр GMC формата : Без точки перехода
Параметр матрицы формата : Default (MPEG)
Идентификатор кодека : XVID
Идентификатор кодека/Подсказка : XviD
Продолжительность : 2 ч. 7 м.
Битрейт : 1975 Кбит/сек
Ширина : 720 пикселей
Высота : 304 пикселя
Соотношение сторон : 2,35:1
Частота кадров : 23,976 кадра/сек
Цветовое пространство : YUV
Субдискретизация насыщенности : 4:2:0
Битовая глубина : 8 бит
Тип развёртки : Прогрессивная
Метод сжатия : С потерями
Бит/(Пиксели*Кадры) : 0.376
Размер потока : 1,76 Гбайт (81%)
Библиотека кодирования : XviD 1.2.1 (UTC 2008-12-04)
Аудио
Идентификатор : 1
Формат : AC-3
Формат/Информация : Audio Coding 3
Расширение режима : CM (complete main)
Параметр Endianness формата : Big
Идентификатор кодека : 2000
Продолжительность : 2 ч. 7 м.
Вид битрейта : Постоянный
Битрейт : 448 Кбит/сек
Каналы : 6 каналов
Расположение каналов : Front: L C R, Side: L R, LFE
Частота : 48,0 КГц
Битовая глубина : 16 бит
Метод сжатия : С потерями
Размер потока : 408 Мбайт (18%)
Выравнивание : Разделение по промежуткам
Продолжительность промежутка : 42 мс. (1,00 видеокадр)
Время предзагрузки промежутка : 500 мс.

Скриншоты



Человек паук 3: Враг в отражении / Spider-Man 3 (2007)

Человек паук 3: Враг в отражении / Spider-Man 3 «Next summer, the greatest battle lies... within» Страна: США
Жанр: фантастика, боевик, триллер
Год выпуска: 2007
Продолжительность: 02:19:11
Перевод: Профессиональный (дублированный)
Cубтитры: нет
Режиссер: Сэм Рэйми / Sam Raimi
В ролях:
Тоби Магуайр, Кирстен Данст, Джеймс Франко, Томас Хейден Чёрч, Тофер Грейс, Брайс Даллас Ховард, Розмари Харрис, Дж.К. Симмонс, Джеймс Кромуэлл, Тереза Расселл
Описание:
Прошло пять лет с тех пор, как Питер осознал, что «с Великой силой приходит Великая ответственность!» и три года с тех пор, как он отказался быть борцом за справедливость. Но сейчас кажется, Питер прекрасно научился жить несколькими жизнями. Он хорошо учится, Нью-Йорк признал его героем, отношения с Мэри Джейн прочные. Питер даже намеревается сделать ей предложение! Но к сожалению, его лучший друг Гарри Озборн по-прежнему считает, что именно Человек-Паук несет ответственность за безвременную кончину его отца. Гарри намеревается отомстить ему в образе Нового Гоблина. В то же самое время на криминальной сцене Нью-Йорка появляется другой могущественный суперзлодей, известный как Песочный Человек. Когда Человек-Паук надевает таинственный черный костюм, его темная, более мстительная сторона полностью поглощает его. Эти трансформации заставляют его встретиться с самым сильным противником: с самим собой…- - HDRip
Исходник - BDRip (1080p)
AVI : XviD : AC3
720x304, 1780 kbps, 23,976 fps, 0.34 b/p
48000 Hz, 6-channel, 448 kbps

MediaInfo

Общее
Полное имя : D:\Spider_Man_Trilogy_Dub\Spider_man_3.avi
Формат : AVI
Формат/Информация : Audio Video Interleave
Профиль формата : OpenDML
Размер файла : 2,17 Гбайт
Продолжительность : 2 ч. 19 м.
Общий поток : 2235 Кбит/сек
Название фильма : Spider-man 3 2007
Жанр : Fantasy
Программа кодирования : VirtualDubMod 1.5.10.2 (build 2540/release)
Формат оригинала/Имя : Movie
Видео
Идентификатор : 0
Формат : MPEG-4 Visual
Профиль формата : Advanced [email protected]
Параметр BVOP формата : 1
Параметр QPel формата : Нет
Параметр GMC формата : Без точки перехода
Параметр матрицы формата : Default (MPEG)
Идентификатор кодека : XVID
Идентификатор кодека/Подсказка : XviD
Продолжительность : 2 ч. 19 м.
Битрейт : 1775 Кбит/сек
Ширина : 720 пикселей
Высота : 304 пикселя
Соотношение сторон : 2,35:1
Частота кадров : 23,976 кадра/сек
Цветовое пространство : YUV
Субдискретизация насыщенности : 4:2:0
Битовая глубина : 8 бит
Тип развёртки : Прогрессивная
Метод сжатия : С потерями
Бит/(Пиксели*Кадры) : 0.338
Размер потока : 1,73 Гбайт (79%)
Библиотека кодирования : XviD 1.2.1 (UTC 2008-12-04)
Аудио
Идентификатор : 1
Формат : AC-3
Формат/Информация : Audio Coding 3
Расширение режима : CM (complete main)
Параметр Endianness формата : Big
Идентификатор кодека : 2000
Продолжительность : 2 ч. 19 м.
Вид битрейта : Постоянный
Битрейт : 448 Кбит/сек
Каналы : 6 каналов
Расположение каналов : Front: L C R, Side: L R, LFE
Частота : 48,0 КГц
Битовая глубина : 16 бит
Метод сжатия : С потерями
Размер потока : 446 Мбайт (20%)
Выравнивание : Разделение по промежуткам
Продолжительность промежутка : 42 мс. (1,00 видеокадр)
Время предзагрузки промежутка : 500 мс.

Скриншоты





Последний раз редактировалось: spaun-shadow (2015-03-20 12:47), всего редактировалось 2 раз(а)

Создавать темы 08-Мар-2015 01:10

[Профиль]  [ЛС] 

farid0888

Стаж: 5 лет 5 месяцев

Сообщений: 232

Симпатии: 49

spaun-shadow, Ну наконец то))) Спасибо тебе огромное!

Создавать темы 08-Мар-2015 02:25

[Профиль]  [ЛС] 

spaun-shadow ®

Стаж: 4 года 6 месяцев

Сообщений: 218

Симпатии: 98

924721spaun-shadow, Ну наконец то))) Спасибо тебе огромное!
Пожалуйста ab

Создавать темы 08-Мар-2015 02:55

[Профиль]  [ЛС] 

Strickland

Стаж: 2 года 7 месяцев

Сообщений: 7

Симпатии: 3

spaun-shadow, А BDRip есть ?

Создавать темы 08-Мар-2015 20:23

[Профиль]  [ЛС] 

spaun-shadow ®

Стаж: 4 года 6 месяцев

Сообщений: 218

Симпатии: 98

924837spaun-shadow, А BDRip есть ?
Нет. В принципе это качество вполне неплохое.

Создавать темы 08-Мар-2015 23:33

[Профиль]  [ЛС] 

farid0888

Стаж: 5 лет 5 месяцев

Сообщений: 232

Симпатии: 49

Качайте народ присоединяйтесь) а то скорости вообще нет..

Создавать темы 12-Мар-2015 10:11

[Профиль]  [ЛС] 

spaun-shadow ®

Стаж: 4 года 6 месяцев

Сообщений: 218

Симпатии: 98

С раздачи совсем не ухожу. По возможности раздаю 24 часа в сутки. Присоединяйтесь, качество хорошее. Помогите остальным пожалуйста.С уважением
spaun-shadow

Создавать темы 13-Мар-2015 01:43

[Профиль]  [ЛС] 

farid0888

Стаж: 5 лет 5 месяцев

Сообщений: 232

Симпатии: 49

beeschunmo, Вернись )))

Создавать темы 13-Мар-2015 18:39

[Профиль]  [ЛС] 

farid0888

Стаж: 5 лет 5 месяцев

Сообщений: 232

Симпатии: 49

924717720x304
первая часть у тебя 720x400 !!

Создавать темы 19-Мар-2015 23:00

[Профиль]  [ЛС] 

Grock

Стаж: 6 лет 8 месяцев

Сообщений: 637

Симпатии: 113

farid0888, Подправил тех.данные, спасибо

Создавать темы 20-Мар-2015 12:58

[Профиль]  [ЛС] 

farid0888

Стаж: 5 лет 5 месяцев

Сообщений: 232

Симпатии: 49

Grock, Вот были бы и остальные серии в 720х400 :))

Создавать темы 21-Мар-2015 22:18

[Профиль]  [ЛС] 
Показать сообщения:    
Ответить на тему

Текущее время: 24-Окт 01:34

Часовой пояс: UTC + 5



Вы не можете начинать темы
Вы не можете отвечать на сообщения
Вы не можете редактировать свои сообщения
Вы не можете удалять свои сообщения
Вы не можете голосовать в опросах
Вы не можете прикреплять файлы к сообщениям
Вы не можете скачивать файлы