Развод по-французски / L'ex de ma vie (Дороте Себба) [2014, Франция, Италия, комедия, мелодрама, DVDRip] (Dub)

Ответить на тему
 

Davron1402 ®

Стаж: 3 года 9 месяцев

Сообщений: 136

Симпатии: 122

Развод по-французски / L'ex de ma vie- Страна: Франция, Италия
Жанр: комедия, мелодрама
Год выпуска: 2014
Продолжительность: 01:19:44
Перевод: Профессиональный (дублированный)
Cубтитры: нет
Режиссер: Дороте Себба
В ролях: Жеральдин Накаш
Ким Росси Стюарт
Паскаль Демолон
Софи Каттани
Катрин Жакоб
Жерар Дюбуш
Николь Феррони
Нора Хамзави
Эрик Фрей
Айса Буссетта
Описание: Ариан и Нино никогда не были обычной парой. Они жили счастливо, вопреки обычаям: женитьба в джинсах, без свадебной церемонии. Нино — преподаватель начальной школы в маленькой деревушке недалеко от Рима, Ариан путешествует по миру в качестве концертирующей скрипачки. Все хорошо пока их принципиальные различия не взяли верх над их любовью.
Два года спустя, Ариан поняла, что хочет выйти замуж и переехать в Америку с известным дирижером по имени Кристен, но для бракоразводного дела в Италии требуется 5 лет, в то время как во Франции 8 дней. Ариан предлагает Нино развестись. Он согласен лишь с одним условием: они проводят эти 8 дней в Париже, вместо медового месяца, которого у них никогда не было…
Доп. информация:
Сценарий: Фанни Шенель, Дороте Себба, Марк Сирига
Продюсер: Кристин Руксель, Марко Кименц, Бенжамен Эсс, ...
Оператор: Жиль Порте
Монтаж: Лоран Руан-Качество видео: DVDRip
Формат видео: AVI
Видео: xvid, 720 x 308 (2.35:1), 24.000 fps, 995 Kbps
Аудио: MPEG Audio, 44.1 KHz, 2 channels, 320 Kbps- IMDb: 3.70

MediaInfo

Расположение: D:\KINO\Развод по-французски.avi
Имя файла: Развод по-французски.avi
Формат файла: .avi (AVI)
Размер файла: 757.34 MB
Длительность: 1h 19mn
Навигация по главам: Нет
Bitrate (все потоки): 1 328 Kbps
...при помощи: Lavf51.12.1
Название: Развод по-французски
Тип потока: Видео
Длительность: 01:19:44
Кодек: xvid
Кодек/ID: xvid
Размеры изображения: 720 x 308 (2.35:1)
Частота кадров: 24.000 fps
Размер потока: 568 MiB (75%)
Битрейт: 995 Kbps
Тип потока: Звук #1
Длительность: 01:19:44.927
Кодек: MPEG Audio
Кодек/Профиль: Layer 3
Кодек/ID: 55
Частота дискретизации: 44.1 KHz
Каналов: 2 channels
Битрейт: 320 Kbps
Битрейт/тип: Constant
Размер потока: 183 MiB (24%)
Метод сжатия: Lossy
Программа: LAME3.97

Скриншоты



С 8 марта

Создавать темы 08-Мар-2015 11:05

[Профиль]  [ЛС] 
Показать сообщения:    
Ответить на тему

Текущее время: 19-Окт 01:29

Часовой пояс: UTC + 5



Вы не можете начинать темы
Вы не можете отвечать на сообщения
Вы не можете редактировать свои сообщения
Вы не можете удалять свои сообщения
Вы не можете голосовать в опросах
Вы не можете прикреплять файлы к сообщениям
Вы не можете скачивать файлы