Она его обожает / Elle l'adore (Жанна Эрри / Jeanne Herry) [2014, комедия, HDRip] (MVO)

Ответить на тему
 

igor1968 ®

Стаж: 5 лет 8 месяцев

Сообщений: 366

Симпатии: 197

Она его обожает / Elle l'adore
Страна:
Жанр: комедия
Год выпуска: 2014
Продолжительность: 01:44:21.504
Перевод: Любительский (многоголосый закадровый)
Cубтитры: нет
Режиссер: Жанна Эрри / Jeanne Herry
В ролях: Сандрин Киберлэн, Лоран Лафитт, Паскаль Демолон, Оливия Коте, Николас Бридет, Себастьен Кнафо, Мюриэль Майетт, Бенжамин Лаверн, Луи Лесаж, Элен Александридис
Описание: Мюриель престижный и знаменитый косметолог. Мама двух прекрасных детишек и самая лучшая подруга для своих знакомых девушек. Она является большой поклонницей популярного певца и красавчика Венсана Лакруа. Однажды он постучался к ней в дверь и попросил о помощи.. С этого момента всё только начинается…
Доп. информация:-сценарий: Жанна Эрри, Гаэлль Масе
продюсер: Ален Аттал, Хьюго Селиньяк, Софи Теппер, ...
оператор: Эксел Коснефруа
художник: Эммануэль Юшновски
премьера (мир):
18 июня 2014, ...- -Качество видео: HDRip
Формат видео: AVI
Видео: 720x304 (2.37:1), 24.000 fps, XviD build 50 ~1607 kbps avg, 0.31 bit/pixel
Аудио: 48 kHz, AC3 Dolby Digital, 2/0 (L,R) ch, ~384.00 kbps avg

MediaInfo

General
Complete name : Ona.Ego.Obojaet.2014.P.HDRip.ELEKTRI4KA.TAS-IX.avi
Format : AVI
Format/Info : Audio Video Interleave
File size : 1.46 GiB
Duration : 1h 44mn
Overall bit rate : 2 001 Kbps
Movie name : Ona.Ego.Obojaet.2014.P.HDRip.ELEKTRI4KA.uniongang.tv
Director : 3imeMachi9e&kolbas
Writing application : VirtualDubMod 1.5.10.3 | www.virtualdub-fr.org || (build 2550/release)
Copyright : UNIONGANG&RUSTORRENTS
Video
ID : 0
Format : MPEG-4 Visual
Format profile : Advanced [email protected]
Format settings, BVOP : Yes
Format settings, QPel : No
Format settings, GMC : No warppoints
Format settings, Matrix : Custom
Codec ID : XVID
Codec ID/Hint : XviD
Duration : 1h 44mn
Bit rate : 1 607 Kbps
Width : 720 pixels
Height : 304 pixels
Display aspect ratio : 2.35:1
Frame rate : 24.000 fps
Color space : YUV
Chroma subsampling : 4:2:0
Bit depth : 8 bits
Scan type : Progressive
Compression mode : Lossy
Bits/(Pixel*Frame) : 0.306
Stream size : 1.17 GiB (80%)
Writing library : XviD 1.2.1 (UTC 2008-12-04)
Audio
ID : 1
Format : AC-3
Format/Info : Audio Coding 3
Mode extension : CM (complete main)
Format settings, Endianness : Big
Codec ID : 2000
Duration : 1h 44mn
Bit rate mode : Constant
Bit rate : 384 Kbps
Channel count : 2 channels
Channel positions : Front: L R
Sampling rate : 48.0 KHz
Bit depth : 16 bits
Compression mode : Lossy
Stream size : 287 MiB (19%)
Alignment : Split accross interleaves
Interleave, duration : 42 ms (1.00 video frame)
Interleave, preload duration : 500 ms

Скриншот c названием фильма

Скриншоты





Создавать темы 08-Мар-2015 12:05

[Профиль]  [ЛС] 

emilsky

Стаж: 7 лет 4 месяца

Сообщений: 2237

Симпатии: 610

влился, igor1968, шапку бы поправить

Создавать темы 08-Мар-2015 19:03

[Профиль]  [ЛС] 

igor1968 ®

Стаж: 5 лет 8 месяцев

Сообщений: 366

Симпатии: 197

924822влился, igor1968, шапку бы поправить
Не могу уже проверено!Плохо - не дают кто проверял (так через личку легче было-бы обращаться )

Создавать темы 08-Мар-2015 21:37

[Профиль]  [ЛС] 

ibragimof

Стаж: 6 лет 7 месяцев

Сообщений: 253

Симпатии: 48

igor1968, можно обращаться любому модератору из группы https://tas-ix.net/group.php?g=11

Создавать темы 08-Мар-2015 23:17

[Профиль]  [ЛС] 

Daimos

Стаж: 5 лет 2 месяца

Сообщений: 35

Симпатии: 8

Я видел хорошие комедии сделанные во Франции, об этом фильме могу сказать только одно - либо у этих двух Жанна Эрри и Гаэлль Масе очень странное чувство юмора, либо кто-то перепутал жанр драму с комедией.

Создавать темы 15-Мар-2015 22:23

[Профиль]  [ЛС] 
Показать сообщения:    
Ответить на тему

Текущее время: 19-Ноя 04:22

Часовой пояс: UTC + 5



Вы не можете начинать темы
Вы не можете отвечать на сообщения
Вы не можете редактировать свои сообщения
Вы не можете удалять свои сообщения
Вы не можете голосовать в опросах
Вы не можете прикреплять файлы к сообщениям
Вы не можете скачивать файлы