Тамерлан. Архитектор степей (2015) HDTV [1080i]

Ответить на тему
 

Zaffa ®

Стаж: 6 лет 9 месяцев

Сообщений: 62

Симпатии: 7

Тамерлан. Архитектор степей (2015) HDTV [1080i]- Телекомпания: Stilos
Жанр: Документальный-Описание:
Тамерлан (Тимур) – второй великий монгол после Чингизхана. Именно он оказал решающее влияние на становление и облик современной Средней Азии. Гениальный полководец, которому покорилась территория в три раза большая, чем империя Александра Великого, Тимур первым на востоке создал умную армию, четко делившуюся по родам войск, имевшую свой спецназ и свои инженерные части. С этой армией Тимур побеждал лучших полководцев своего времени, включая султана Баязида (Молниеносного) и хана Тохтамыша, чем существенно облегчил жизнь Московского княжества, хотя ранее совершил короткий набег на русские земли и захватил Елец. В гораздо меньшей степени Тамерлан известен нам как великий созидатель и преобразователь, хотя свидетельств этой стороны гения Тимура более чем достаточно. Разрушив захваченные города, он заново отстраивал их. Если же они не подвергались разрушениям, по приказу Тимура в них возводились здания по проектам, которые он утверждал лично (как и вообще все постройки, осуществляемые от его имени). Как древние, так и современные исследователи сходятся во мнении, что постройки Тимура отличают особый стиль и изысканность. Большинство сохранившихся памятников зодчества Тимура входят в "сокровищницу мировой культуры".
Автор: Олег Хафизов
Режиссер: Роман Шмидт
Продолжительность: 00:43:43
Качество видео: HDTV [1080i]
Видеокодек: MPEG-4 AVC/H.264
Битрейт видео: 8067 kb/s
Размер кадра: 1920х1080
Аудиокодек: MP2, 2 ch
Битрейт аудио: 224 kb/s VBR-

Медиа инфо:

Общее
Идентификатор : 16 (0x10)
Полное имя : Tamerlane_Architect of steppes_HD.ts
Формат : MPEG-TS
Размер файла : 2,66 Гбайт
Продолжительность : 43 м.
Режим общего битрейта : Переменный
Общий поток : 8724 Кбит/сек
Видео
Идентификатор : 1901 (0x76D)
Идентификатор меню : 901 (0x385)
Формат : AVC
Формат/Информация : Advanced Video Codec
Профиль формата : [email protected]
Параметр CABAC формата : Да
Параметр ReFrames формата : 3 кадра
Идентификатор кодека : 27
Продолжительность : 43 м.
Битрейт : 8067 Кбит/сек
Ширина : 1920 пикселей
Высота : 1080 пикселей
Соотношение сторон : 16:9
Частота кадров : 25,000 кадров/сек
Стандарт вещания : PAL
Цветовое пространство : YUV
Субдискретизация насыщенности : 4:2:0
Битовая глубина : 8 бит
Тип развёртки : Чересстрочная
Порядок развёртки : Верхнее поле первое
Бит/(Пиксели*Кадры) : 0.156
Размер потока : 2,46 Гбайт (92%)
Основные цвета : BT.709
Характеристики трансфера : BT.709
Коэффициенты матрицы : BT.709
Аудио
Идентификатор : 2901 (0xB55)
Идентификатор меню : 901 (0x385)
Формат : MPEG Audio
Версия формата : Version 1
Профиль формата : Layer 2
Идентификатор кодека : 4
Продолжительность : 43 м.
Вид битрейта : Постоянный
Битрейт : 224 Кбит/сек
Каналы : 2 канала
Частота : 48,0 КГц
Метод сжатия : С потерями
Задержка видео : 129 мс.
Размер потока : 70,1 Мбайт (3%)
Язык : std
Язык, дополнительно : Clean effects
-

Скрийншот:




-Источник: nnm-club.me-

Создавать темы 08-Мар-2015 19:10

[Профиль]  [ЛС] 

Арипов Мурод

Стаж: 3 года 9 месяцев

Сообщений: 49

не "Тимур" а "Темур"

Создавать темы 10-Мар-2015 18:47

[Профиль]  [ЛС] 

destonic

Стаж: 3 года 11 месяцев

Сообщений: 61

Симпатии: 10

Арипов Мурод, Это как не "Арипов" а "Орипов". На разных языках имена и фамилии звучат/произносят немножко по другому. Это думаю не критично.

Создавать темы 10-Мар-2015 19:12

[Профиль]  [ЛС] 

tim78

Стаж: 5 лет 7 месяцев

Сообщений: 32

Симпатии: 1

Вот досада посмотреть не получается в таком формате, постоянно виснет трясётся и т.д и т.п. А так зачётное видео!

Создавать темы 14-Мар-2015 22:13

[Профиль]  [ЛС] 

ШОЙ

Стаж: 5 лет 4 месяца

Сообщений: 33

Симпатии: 2

не "скрийншот" а "скриншот"

Создавать темы 26-Мар-2015 07:30

[Профиль]  [ЛС] 
Показать сообщения:    
Ответить на тему

Текущее время: 22-Сен 04:14

Часовой пояс: UTC + 5



Вы не можете начинать темы
Вы не можете отвечать на сообщения
Вы не можете редактировать свои сообщения
Вы не можете удалять свои сообщения
Вы не можете голосовать в опросах
Вы не можете прикреплять файлы к сообщениям
Вы не можете скачивать файлы