Невероятное пари, или Истинное происшествие, благополучно завершившееся сто лет назад (Владимир Мотыль) [1984, комедия, DVDRip]

Ответить на тему
 

lotto ®

Стаж: 7 лет 8 месяцев

Сообщений: 221

Симпатии: 409

Невероятное пари, или Истинное происшествие,
благополучно завершившееся сто лет назад
-- Жанр: комедия
Год выпуска: 1984
Продолжительность: 01:15:46--Режиссёр: Владимир Мотыль
В ролях: Борис Плотников, Алексей Петренко, Ирина Муравьёва, Михаил Козаков, Станислав Садальский, Алексей Кожевников, Людмила Целиковская, Сергей Скрипкин, Иван Насонов, Станислав Соколов--Описание: По мотивам рассказов Aнтoнa Пaвлoвичa Чexoвa «Пapи», «Жилeц», «Из вocпoминaний идeaлиcтa», «Heocтopoжнocть», «Ha мeльницe», «Caпoжник и нeчиcтaя cилa».
Moлoдoй cтyдeнт-юpиcт и кpyпный бaнкиp зaключaют пapи нa двa миллиoнa pyблeй. Пo ycлoвию пapи cтyдeнт дoлжeн был пpocидeть 15 лeт в oдинoчнoй кaмepe.-- --Качество видео: DVDRip
Формат видео: AVI
Видео: XviD, 704x528, 2283 kbps, 25 fps
Аудио: AC3, 48 KHz, 6 ch, 448 kbps

MediaInfo

eneral
Complete name : /Невероятное пари_1.46.avi
Format : AVI
Format/Info : Audio Video Interleave
File size : 1.45 GiB
Duration : 1h 15mn
Overall bit rate : 2 741 Kbps
Writing application : VirtualDubModRus 1.5.10.2 (build 2540/release)
Writing library : VirtualDubMod build 2540/release
Video
ID : 0
Format : MPEG-4 Visual
Format profile : Advanced [email protected]
Format settings, BVOP : 1
Format settings, QPel : No
Format settings, GMC : No warppoints
Format settings, Matrix : Custom
Codec ID : XVID
Codec ID/Hint : XviD
Duration : 1h 15mn
Bit rate : 2 283 Kbps
Width : 704 pixels
Height : 528 pixels
Display aspect ratio : 4:3
Frame rate : 25.000 fps
Color space : YUV
Chroma subsampling : 4:2:0
Bit depth : 8 bits
Scan type : Progressive
Compression mode : Lossy
Bits/(Pixel*Frame) : 0.246
Stream size : 1.21 GiB (83%)
Writing library : XviD 65
Audio
ID : 1
Format : AC-3
Format/Info : Audio Coding 3
Mode extension : CM (complete main)
Format settings, Endianness : Big
Codec ID : 2000
Duration : 1h 15mn
Bit rate mode : Constant
Bit rate : 448 Kbps
Channel(s) : 6 channels
Channel positions : Front: L C R, Side: L R, LFE
Sampling rate : 48.0 KHz
Bit depth : 16 bits
Compression mode : Lossy
Stream size : 243 MiB (16%)
Alignment : Split accross interleaves
Interleave, duration : 40 ms (1.00 video frame)
Interleave, preload duration : 500 ms

Скриншот c названием фильма

Скриншоты




Создавать темы 08-Мар-2015 23:39

[Профиль]  [ЛС] 
Показать сообщения:    
Ответить на тему

Текущее время: 21-Сен 12:02

Часовой пояс: UTC + 5



Вы не можете начинать темы
Вы не можете отвечать на сообщения
Вы не можете редактировать свои сообщения
Вы не можете удалять свои сообщения
Вы не можете голосовать в опросах
Вы не можете прикреплять файлы к сообщениям
Вы не можете скачивать файлы