Обратное движение (Андрей Стемпковский) [2010, Россия, драма, DVDRip] (Original Rus)

Ответить на тему
 

kat222000 ®

Стаж: 6 лет 4 месяца

Сообщений: 608

Симпатии: 1055

-Обратное движение-Страна: Россия
Жанр: драма
Год выпуска: 2010
Продолжительность: 01:32:18-Перевод: Не требуется
Cубтитры: нет-Режиссер: Андрей Стемпковский-В ролях: Владислав Абашин, Ольга Демидова, Никита Емшанов, Александр Плаксин, Дарья Грачева, Георгий Гацоев и другие.-Описание: Немолодая женщина, живущая в одном из маленьких российских городков, получает сообщение, что её единственный сын, служащий в горячей точке, пропал без вести. Приезжающий вслед за этим сослуживец сына приносит матери весть о вероятной гибели сына. Через некоторое время мать замечает бездомного мальчишку-гастарбайтера, с покалеченной рукой, и берёт его в дом. Неожиданно возвращается казавшийся погибшим сын…- -Возраст: зрителям, достигшим 16 лет-Качество видео: DVDRip
Формат видео: AVI
Видео кодек: Xvid
Аудио кодек: MP2
Видео: Xvid, 720x400, 25fps, 2083kbps
Аудио: MP2, 48000Hz, 2 ch, 224kbps-

MediaInfo

General
Format : AVI
Format/Info : Audio Video Interleave
File size : 1.49 GiB
Duration : 1h 32mn
Overall bit rate : 2 318 Kbps
Writing application : VirtualDubMod 1.5.10.2 (build 2542/release)
Writing library : VirtualDubMod build 2542/release
Video
ID : 0
Format : MPEG-4 Visual
Format profile : Advanced [email protected]
Format settings, BVOP : Yes
Format settings, QPel : No
Format settings, GMC : No warppoints
Format settings, Matrix : Default (H.263)
Codec ID : XVID
Codec ID/Hint : XviD
Duration : 1h 32mn
Bit rate : 2 084 Kbps
Width : 720 pixels
Height : 400 pixels
Display aspect ratio : 16:9
Frame rate : 25.000 fps
Color space : YUV
Chroma subsampling : 4:2:0
Bit depth : 8 bits
Scan type : Progressive
Compression mode : Lossy
Bits/(Pixel*Frame) : 0.289
Stream size : 1.34 GiB (90%)
Writing library : XviD 64
Audio
ID : 1
Format : MPEG Audio
Format version : Version 1
Format profile : Layer 2
Codec ID : 50
Duration : 1h 32mn
Bit rate mode : Constant
Bit rate : 224 Kbps
Channel(s) : 2 channels
Sampling rate : 48.0 KHz
Compression mode : Lossy
Stream size : 148 MiB (10%)
Alignment : Aligned on interleaves
Interleave, duration : 40 ms (1.00 video frame)
Interleave, preload duration : 504 ms
-

Скриншоты



- - -

Создавать темы 09-Мар-2015 00:14

[Профиль]  [ЛС] 
Показать сообщения:    
Ответить на тему

Текущее время: 18-Авг 02:37

Часовой пояс: UTC + 5



Вы не можете начинать темы
Вы не можете отвечать на сообщения
Вы не можете редактировать свои сообщения
Вы не можете удалять свои сообщения
Вы не можете голосовать в опросах
Вы не можете прикреплять файлы к сообщениям
Вы не можете скачивать файлы