Сицилийский клан / Le Clan des Siciliens (Анри Верней) [1969, Франция, драма, криминал, BDRip] (MVO)

Ответить на тему
 

lotto ®

Стаж: 7 лет 8 месяцев

Сообщений: 221

Симпатии: 409

Сицилийский клан / Le Clan des Siciliens
«The murders in Paris! The robbery in Rome! The double-cross in New York!»
-- Страна: Франция
Жанр: драма, криминал
Год выпуска: 1969
Продолжительность: 02:04:46
Перевод: Профессиональный (многоголосый закадровый)
Cубтитры: нет--Режиссер: Анри Верней
В ролях: Жан Габен, Ален Делон, Лино Вентура, Ирина Демик, Амедео Наццари, Филипп Баронне, Карен Блангернон, Ив Брэнвиль, Жерар Бур, Элиза Чегани--Описание: Молодой гангстер Роже Сарте совершает побег из фургона, перевозящего его в тюрьму из Дворца Правосудия. Все проходит удачно благодаря помощи главы сицилийского клана Витторио Маналезе. Роже нужен ему для участия в дерзком ограблении. Клан намерен совершить кражу уникальной коллекции драгоценностей, собранной в Риме для международной выставки. К операции готовятся долго и тщательно. Поскольку выставка будет проходить в Нью-Йорке, американский друг Витторио Тони Никозиа предлагает привести план в исполнение во время полета и захватить добычу-- --Качество видео: BDRip
Формат видео: AVI
Видео: XviD, 720x304, 2049 kbps, 23.976 fps
Аудио: AC3, 48 kHz, 6 ch, 384 kbps (русский, многоголосый)

MediaInfo

General
Complete name : \Сицилийский клан - Le Clan des Siciliens [by Edich2].avi
Format : AVI
Format/Info : Audio Video Interleave
Format profile : OpenDML
File size : 2.13 GiB
Duration : 2h 4mn
Overall bit rate : 2 445 Kbps
Movie name : Сицилийский клан - Le Clan des Siciliens [by Edich2]
Director : Rip by Edich2
Writing application : VirtualDubMod 1.5.10.3 | www.virtualdub-fr.org || (build 2550/release)
Comment : RuTracker.org
Video
ID : 0
Format : MPEG-4 Visual
Format profile : Advanced [email protected]
Format settings, BVOP : 2
Format settings, QPel : No
Format settings, GMC : No warppoints
Format settings, Matrix : Custom
Codec ID : XVID
Codec ID/Hint : XviD
Duration : 2h 4mn
Bit rate : 2 049 Kbps
Width : 720 pixels
Height : 304 pixels
Display aspect ratio : 2.35:1
Frame rate : 23.976 fps
Color space : YUV
Chroma subsampling : 4:2:0
Bit depth : 8 bits
Scan type : Progressive
Compression mode : Lossy
Bits/(Pixel*Frame) : 0.391
Stream size : 1.79 GiB (84%)
Writing library : XviD 1.2.1 (UTC 2008-12-04)
Audio
ID : 1
Format : AC-3
Format/Info : Audio Coding 3
Mode extension : CM (complete main)
Format settings, Endianness : Big
Codec ID : 2000
Duration : 2h 4mn
Bit rate mode : Constant
Bit rate : 384 Kbps
Channel(s) : 6 channels
Channel positions : Front: L C R, Side: L R, LFE
Sampling rate : 48.0 KHz
Bit depth : 16 bits
Compression mode : Lossy
Stream size : 343 MiB (16%)
Alignment : Split accross interleaves
Interleave, duration : 42 ms (1.00 video frame)
Interleave, preload duratio : 500 ms

Скриншот c названием фильма

Скриншоты





Создавать темы 10-Мар-2015 19:31

[Профиль]  [ЛС] 
Показать сообщения:    
Ответить на тему

Текущее время: 26-Сен 14:16

Часовой пояс: UTC + 5



Вы не можете начинать темы
Вы не можете отвечать на сообщения
Вы не можете редактировать свои сообщения
Вы не можете удалять свои сообщения
Вы не можете голосовать в опросах
Вы не можете прикреплять файлы к сообщениям
Вы не можете скачивать файлы