System Of A Down - Live KROQ Almost Acoustic Chirstmas 2014 [2014 г., Alternative Metal, HDRip]

Ответить на тему
 

DXgame ®

Стаж: 4 года 11 месяцев

Сообщений: 128

Симпатии: 144

System Of A Down - Live KROQ Almost Acoustic Chirstmas 2014 Full HD Concert- Год выпуска: 2014
Страна: CA, USA
Жанр: Alternative Metal
Продолжительность: 01:00:03-Описание:
System Of A Down - Full Concert - 720p HD KROQ Almost Acoustic Christmas 2014
The Forum, Inglewood, CA, USA
December 13, 2014-Качество: HDRip
Формат: MP4
Видео кодек: AVC
Аудио кодек: AAC
Видео: 1280 x 720, 16:9, 29.970 fps, 2 668 Kbps
Аудио: 192 Kbps, 2 channels, 44.1 KHz-

Трэклист

01. Chop Suey!
02. Soldier Side - Intro
03. B.Y.O.B.
04. Prison Song
05. Aerials
06. A.D.D.
07. Needles
08. Deer Dance
09. Psycho
10. Radio/Video
11. Hypnotize
12. Lonely Day
13. Spiders
14. Question!
15. Toxicity
16. Sugar

MediaInfo

General
Complete name                            : D:\Концерты\System Of A Down - Live KROQ Almost Acoustic Chirstmas 2014 Full HD Concert.mp4
Format                                   : MPEG-4
Format profile                           : Base Media / Version 2
Codec ID                                 : mp42
File size                                : 1.20 GiB
Duration                                 : 1h 0mn
Overall bit rate mode                    : Variable
Overall bit rate                         : 2 863 Kbps
Encoded date                             : UTC 2014-12-18 17:06:24
Tagged date                              : UTC 2014-12-18 17:06:24
Video
ID                                       : 1
Format                                   : AVC
Format/Info                              : Advanced Video Codec
Format profile                           : High[email protected]
Format settings, CABAC                   : Yes
Format settings, ReFrames                : 1 frame
Format settings, GOP                     : M=1, N=60
Codec ID                                 : avc1
Codec ID/Info                            : Advanced Video Coding
Duration                                 : 1h 0mn
Bit rate                                 : 2 668 Kbps
Maximum bit rate                         : 10.0 Mbps
Width                                    : 1 280 pixels
Height                                   : 720 pixels
Display aspect ratio                     : 16:9
Frame rate mode                          : Constant
Frame rate                               : 29.970 fps
Color space                              : YUV
Chroma subsampling                       : 4:2:0
Bit depth                                : 8 bits
Scan type                                : Progressive
Bits/(Pixel*Frame)                       : 0.097
Stream size                              : 1.12 GiB (93%)
Tagged date                              : UTC 2014-12-18 17:10:14
Audio
ID                                       : 2
Format                                   : AAC
Format/Info                              : Advanced Audio Codec
Format profile                           : LC
Codec ID                                 : 40
Duration                                 : 1h 0mn
Bit rate mode                            : Variable
Bit rate                                 : 192 Kbps
Maximum bit rate                         : 202 Kbps
Channel(s)                               : 2 channels
Channel positions                        : Front: L R
Sampling rate                            : 44.1 KHz
Compression mode                         : Lossy
Stream size                              : 82.5 MiB (7%)
Encoded date                             : UTC 2014-12-18 17:08:26
Tagged date                              : UTC 2014-12-18 17:10:14

Скриншоты



Создавать темы 10-Мар-2015 20:11

[Профиль]  [ЛС] 
Показать сообщения:    
Ответить на тему

Текущее время: 20-Сен 08:47

Часовой пояс: UTC + 5



Вы не можете начинать темы
Вы не можете отвечать на сообщения
Вы не можете редактировать свои сообщения
Вы не можете удалять свои сообщения
Вы не можете голосовать в опросах
Вы не можете прикреплять файлы к сообщениям
Вы не можете скачивать файлы