Игра в имитацию / The Imitation Game (Мортен Тильдум / Morten Tyldum) [2014, Великобритания, США, триллер, драма, военный, HDRip] [Лицензия] (Dub)

Ответить на тему
 

iddqd ®

Стаж: 3 года 7 месяцев

Сообщений: 16

Симпатии: 15

Игра в имитацию / The Imitation Game«Основано на невероятной, но реальной истории» Год выпуска: 2014
Страна: Великобритания, США
Жанр: триллер, драма, военный, биография
Продолжительность: 01:54:14
Перевод: Дублированный [Лицензия]
Режиссер: Мортен Тильдум
В ролях: Бенедикт Камбербэтч, Кира Найтли, Мэттью Гуд, Рори Киннер, Аллен Лич, Мэттью Бирд, Чарльз Дэнс, Марк Стронг, Джеймс Норткот, Том Гудман-Хилл
Описание: 1941 год. Британская разведка безуспешно бьется над расшифровкой кода шифровальной машины «Энигма», разработанной немцами. Для достижения результатов наняты лучшие специалисты в области дешифровки, среди которых математик Алан Тьюринг — ученый блестящий, но не от мира сего. Добиться расположения коллег ему поможет Джоан Кларк (Кира Найтли) — единственная девушка, оказавшаяся в мужской команде, работающей над «Энигмой». Они с Аланом даже успеют обручиться, поскольку беспредельно уважают друг друга, но до свадьбы дело не дойдет. Тьюринг не хочет мучить девушку, поскольку не в силах пойти против своей природы: он гей, а геев в Великобритании преследовали по закону.
Качество видео: HDRip
Формат видео: AVI
Видео: XviD, 720x304, 1320 Кбит/с
Аудио: АС3, 6 ch, 384 Кбит/с

MediaInfo

Format : AVI
Format/Info : Audio Video Interleave
File size : 1.37 GiB
Duration : 1h 54mn
Overall bit rate : 1 713 Kbps
Writing application : VirtualDubMod 1.5.10.2 (build 2540/release)
Writing library : VirtualDubMod build 2540/release
Video
ID : 0
Format : MPEG-4 Visual
Format profile : Advanced [email protected]
Format settings, BVOP : 2
Format settings, QPel : No
Format settings, GMC : No warppoints
Format settings, Matrix : Default (MPEG)
Codec ID : XVID
Codec ID/Hint : XviD
Duration : 1h 54mn
Bit rate : 1 320 Kbps
Width : 720 pixels
Height : 304 pixels
Display aspect ratio : 2.35:1
Frame rate : 23.976 fps
Color space : YUV
Chroma subsampling : 4:2:0
Bit depth : 8 bits
Scan type : Progressive
Compression mode : Lossy
Bits/(Pixel*Frame) : 0.251
Stream size : 1.05 GiB (77%)
Writing library : XviD 1.2.1 (UTC 2008-12-04)
Audio
ID : 1
Format : AC-3
Format/Info : Audio Coding 3
Mode extension : CM (complete main)
Format settings, Endianness : Big
Codec ID : 2000
Duration : 1h 54mn
Bit rate mode : Constant
Bit rate : 384 Kbps
Channel(s) : 6 channels
Channel positions : Front: L C R, Side: L R, LFE
Sampling rate : 48.0 KHz
Bit depth : 16 bits
Compression mode : Lossy
Stream size : 314 MiB (22%)
Alignment : Split accross interleaves
Interleave, duration : 42 ms (1.00 video frame)
Interleave, preload duration : 500 ms

Скриншот c названием фильма

Скриншоты



Последний раз редактировалось: iddqd (2015-03-10 23:09), всего редактировалось 3 раз(а)

Создавать темы 10-Мар-2015 21:13

[Профиль]  [ЛС] 

Grock

Стаж: 6 лет 6 месяцев

Сообщений: 637

Симпатии: 113

iddqd, Чуток подправил оформление zd

Создавать темы 10-Мар-2015 23:12

[Профиль]  [ЛС] 
Показать сообщения:    
Ответить на тему

Текущее время: 17-Авг 00:56

Часовой пояс: UTC + 5



Вы не можете начинать темы
Вы не можете отвечать на сообщения
Вы не можете редактировать свои сообщения
Вы не можете удалять свои сообщения
Вы не можете голосовать в опросах
Вы не можете прикреплять файлы к сообщениям
Вы не можете скачивать файлы