[#220]Король говорит! / The King's Speech (Том Хупер / Tom Hooper) [2010, Великобритания, США, Австралия, драма, биография, история, HDRip-AVC] (Dub) (Sub Rus + Original Eng + Spa)

Ответить на тему
 

SNation ®

Стаж: 4 года 6 месяцев

Сообщений: 81

Симпатии: 70

--Король говорит! / The King's Speech--«It takes leadership to confront a nation's fear. It takes friendship to conquer your own»-- Страна: Великобритания, США, Австралия
Жанр: драма, биография, история
Год выпуска: 2010
Продолжительность: 01:58:00
Перевод: Профессиональный (дублированный)
Cубтитры: русские, английские, испанские
Оригинальная аудиодорожка: английский
Режиссер: Том Хупер / Tom Hooper
В ролях: Колин Фёрт, Джеффри Раш, Хелена Бонем Картер, Гай Пирс, Майкл Гэмбон, Патрик Райкарт, Тимоти Сполл, Роджер Пэррот, Клер Блум, Дженнифер Эль
Описание: Сюжет ленты расскажет о герцоге, который готовится вступить в должность британского короля Георга VI, отца нынешней королевы Елизаветы II. После того, как его брат отрекается от престола, герой неохотно соглашается на трон. Измученный страшным нервным заиканием и сомнениями в своих способностях руководить страной, Георг обращается за помощью к неортодоксальному логопеду по имени Лайонел Лог.- -Качество видео: HDRip-AVC
Формат видео: MKV
Видео: AVC | 2 622 Kbps | 1 088x612 | 16:9 | 23.976 fps
Аудио: AC3 | 448 Kbps | 6 channels | 48.0 KHz | 16 bits | Russian
Аудио 2: AC3 | 448 Kbps | 6 channels | 48.0 KHz | 16 bits | English

Награды

    Оскар, 2011 год
    Победитель (4):
    Лучший фильм
    Лучшая мужская роль (Колин Фёрт)
    Лучший режиссер (Том Хупер)
    Лучший сценарий
    Британская академия, 2011 год
    Победитель (7):
    Лучший фильм
    Лучшая мужская роль (Колин Фёрт)
    Лучшая мужская роль второго плана (Джеффри Раш)
    Лучшая женская роль второго плана (Хелена Бонем Картер)
    Лучший оригинальный сценарий
    Премия имени Энтони Эскуита за достижения в создании музыки к фильму
    Премия имени Александра Корды за самый выдающийся британский фильм года
    Золотой глобус, 2011 год
    Победитель (1):
    Лучшая мужская роль (драма) (Колин Фёрт)
    Европейская киноакадемия, 2011 год
    Победитель (3):
    Лучшая мужская роль (Колин Фёрт)
    Приз зрительских симпатий за лучший фильм
    Лучший монтаж
    Премия Гильдии актеров, 2011 год
    Победитель (2):
    Лучший актерский состав
    Лучшая мужская роль (Колин Фёрт
    Гойя, 2011 год
    Победитель (1):
    Лучший европейский фильм
    Жорж, 2012 год
    Победитель (1):
    Лучшая зарубежная драма
    Золотой орел, 2012 год
    Победитель (1):
    Лучший зарубежный фильм в российском прокате — «Каскад»

MediaInfo

General
Unique ID                                : 215502545095875816939041467668337026537 (0xA22047CCD4070743937B00DA25B065E9)
Complete name                            : D:\Король говорит!.mkv
Format                                   : Matroska
Format version                           : Version 2
File size                                : 2.91 GiB
Duration                                 : 1h 58mn
Overall bit rate                         : 3 518 Kbps
Movie name                               : The King's Speech 2010
Encoded date                             : UTC 2011-04-10 10:36:44
Writing application                      : mkvmerge v4.6.0 ('Still Crazy After All These Years') built on Mar 10 2011 02:50:32
Writing library                          : libebml v1.2.0 + libmatroska v1.1.0
Attachment                               : Yes
Video
ID                                       : 1
Format                                   : AVC
Format/Info                              : Advanced Video Codec
Format profile                           : [email protected]
Format settings, CABAC                   : Yes
Format settings, ReFrames                : 11 frames
Codec ID                                 : V_MPEG4/ISO/AVC
Duration                                 : 1h 58mn
Bit rate                                 : 2 622 Kbps
Width                                    : 1 088 pixels
Height                                   : 612 pixels
Display aspect ratio                     : 16:9
Frame rate                               : 23.976 fps
Color space                              : YUV
Chroma subsampling                       : 4:2:0
Bit depth                                : 8 bits
Scan type                                : Progressive
Bits/(Pixel*Frame)                       : 0.164
Stream size                              : 2.11 GiB (73%)
Title                                    : The King's Speech
Writing library                          : x264 core 114 r1924 08d04a4
Encoding settings                        : cabac=1 / ref=11 / deblock=1:-3:-2 / analyse=0x3:0x113 / me=umh / subme=10 / psy=1 / psy_rd=1.05:0.03 / mixed_ref=1 / me_range=32 / chroma_me=1 / trellis=2 / 8x8dct=1 / cqm=0 / deadzone=21,11 / fast_pskip=0 / chroma_qp_offset=-3 / threads=6 / sliced_threads=0 / nr=0 / decimate=0 / interlaced=0 / constrained_intra=0 / bframes=9 / b_pyramid=2 / b_adapt=2 / b_bias=0 / direct=3 / weightb=1 / open_gop=0 / weightp=2 / keyint=250 / keyint_min=23 / scenecut=40 / intra_refresh=0 / rc_lookahead=0 / rc=2pass / mbtree=0 / bitrate=2622 / ratetol=1.0 / qcomp=0.65 / qpmin=0 / qpmax=69 / qpstep=4 / cplxblur=20.0 / qblur=0.5 / vbv_maxrate=50000 / vbv_bufsize=62500 / nal_hrd=none / ip_ratio=1.35 / pb_ratio=1.25 / aq=2:0.80 / zones=160490,170422,q=35
Language                                 : English
Default                                  : Yes
Forced                                   : No
Matrix coefficients                      : BT.709-5, BT.1361, IEC 61966-2-4 709, SMPTE RP177
Audio #1
ID                                       : 2
Format                                   : AC-3
Format/Info                              : Audio Coding 3
Mode extension                           : CM (complete main)
Format settings, Endianness              : Big
Codec ID                                 : A_AC3
Duration                                 : 1h 58mn
Bit rate mode                            : Constant
Bit rate                                 : 448 Kbps
Channel(s)                               : 6 channels
Channel positions                        : Front: L C R, Side: L R, LFE
Sampling rate                            : 48.0 KHz
Bit depth                                : 16 bits
Compression mode                         : Lossy
Stream size                              : 380 MiB (13%)
Title                                    : Dubljaz, 48 kHz, AC3 Dolby Digital, 3/2 (L,C,R,l,r) + LFE ch, ~448.00 kbps
Language                                 : Russian
Default                                  : Yes
Forced                                   : No
Audio #2
ID                                       : 3
Format                                   : AC-3
Format/Info                              : Audio Coding 3
Mode extension                           : CM (complete main)
Format settings, Endianness              : Big
Codec ID                                 : A_AC3
Duration                                 : 1h 58mn
Bit rate mode                            : Constant
Bit rate                                 : 448 Kbps
Channel(s)                               : 6 channels
Channel positions                        : Front: L C R, Side: L R, LFE
Sampling rate                            : 48.0 KHz
Bit depth                                : 16 bits
Compression mode                         : Lossy
Stream size                              : 380 MiB (13%)
Title                                    : Original, 48 kHz, AC3 Dolby Digital, 3/2 (L,C,R,l,r) + LFE ch, ~448.00 kbps
Language                                 : English
Default                                  : No
Forced                                   : No
Text #1
ID                                       : 4
Format                                   : UTF-8
Codec ID                                 : S_TEXT/UTF8
Codec ID/Info                            : UTF-8 Plain Text
Title                                    : Jeketeur & Colin.borda
Language                                 : Russian
Default                                  : No
Forced                                   : No
Text #2
ID                                       : 5
Format                                   : UTF-8
Codec ID                                 : S_TEXT/UTF8
Codec ID/Info                            : UTF-8 Plain Text
Title                                    : SDH
Language                                 : English
Default                                  : No
Forced                                   : No
Text #3
ID                                       : 6
Format                                   : UTF-8
Codec ID                                 : S_TEXT/UTF8
Codec ID/Info                            : UTF-8 Plain Text
Language                                 : English
Default                                  : No
Forced                                   : No
Text #4
ID                                       : 7
Format                                   : UTF-8
Codec ID                                 : S_TEXT/UTF8
Codec ID/Info                            : UTF-8 Plain Text
Language                                 : Spanish
Default                                  : No
Forced                                   : No
Menu
00:00:00.000                             : en:Chapter 1
00:05:17.900                             : en:Chapter 2
00:07:38.416                             : en:Chapter 3
00:12:16.485                             : en:Chapter 4
00:17:51.904                             : en:Chapter 5
00:29:17.422                             : en:Chapter 6
00:34:25.188                             : en:Chapter 7
00:38:44.196                             : en:Chapter 8
00:45:49.329                             : en:Chapter 9
00:56:05.236                             : en:Chapter 10
01:00:56.069                             : en:Chapter 11
01:05:03.524                             : en:Chapter 12
01:11:48.512                             : en:Chapter 13
01:14:32.885                             : en:Chapter 14
01:16:46.018                             : en:Chapter 15
01:21:24.879                             : en:Chapter 16
01:23:35.385                             : en:Chapter 17
01:31:03.875                             : en:Chapter 18
01:33:46.662                             : en:Chapter 19
01:41:48.769                             : en:Chapter 20
01:48:16.740                             : en:Chapter 21
01:51:33.561                             : en:Chapter 22

Скриншот c названием фильма

Скриншоты



Создавать темы 11-Мар-2015 09:09

[Профиль]  [ЛС] 
Показать сообщения:    
Ответить на тему

Текущее время: 21-Окт 22:38

Часовой пояс: UTC + 5



Вы не можете начинать темы
Вы не можете отвечать на сообщения
Вы не можете редактировать свои сообщения
Вы не можете удалять свои сообщения
Вы не можете голосовать в опросах
Вы не можете прикреплять файлы к сообщениям
Вы не можете скачивать файлы