[#119]Крепкий орешек / Die Hard (Джон МакТирнан / John McTiernan) [1988, США, боевик, триллер, BDRip 720p] (Dub) (Sub Rus + Original Eng)

Ответить на тему
 

SNation ®

Стаж: 4 года 4 месяца

Сообщений: 81

Симпатии: 70

Крепкий орешек / Die Hard--«40 Storeys High - with Suspense, Excitement and Adventure on every level!»-- Страна: США
Жанр: боевик, триллер
Год выпуска: 1988
Продолжительность: 02:12:00
Перевод: Профессиональный (дублированный)
Cубтитры: русские
Оригинальная аудиодорожка: английский
Режиссер: Джон МакТирнан / John McTiernan
В ролях: Брюс Уиллис, Алан Рикман, Бонни Беделиа, Реджинальд ВелДжонсон, Пол Глисон, Уильям Этертон, Харт Бокнер, Джеймс Шигета, Александр Годунов, Бруно Доуон
Описание: В суперсовременном небоскребе Лос-Анджелеса полицейский Джон Макклейн ведет смертельную схватку с бандой политических террористов, взявших в заложники два десятка человек, в число которых попадает и его жена. Началось все с того, что парень приехал в город к жене, оказался на рождественском приеме, а кончилось настоящей войной…- -Качество видео: BDRip 720p
Формат видео: MKV
Видео: AVC | 2 668 Kbps | 1280x544 | 23.976 fps
Аудио: AC3 | 448 kbps | 6 channels | 48.0 KHz | 16 bits | Дубляж | Russian
Аудио 2: AC3 | 448 kbps | 6 channels | 48.0 KHz | 16 bits | Original| English

Номинации

    Оскар, 1989 год
    Номинации (4):
    Лучший звук
    Лучший монтаж
    Лучший монтаж звука
    Лучшие визуальные эффекты

MediaInfo

General
Unique ID                                : 246210020028579549341747976155139988545 (0xB93A5334633DA4DE9A2800FB8BE8DC41)
Complete name                            : D:\Крепкий орешек.mkv
Format                                   : Matroska
Format version                           : Version 2
File size                                : 3.29 GiB
Duration                                 : 2h 12mn
Overall bit rate mode                    : Variable
Overall bit rate                         : 3 558 Kbps
Movie name                               : Die Hard (1988) BDRip 720p
Encoded date                             : UTC 2010-12-29 18:45:27
Writing application                      : mkvmerge v4.0.0 ('The Stars were mine') сборка от Jun  6 2010 16:18:42
Writing library                          : libebml v1.0.0 + libmatroska v1.0.0
Video
ID                                       : 1
Format                                   : AVC
Format/Info                              : Advanced Video Codec
Format profile                           : [email protected]
Format settings, CABAC                   : Yes
Format settings, ReFrames                : 3 frames
Codec ID                                 : V_MPEG4/ISO/AVC
Duration                                 : 2h 12mn
Bit rate mode                            : Variable
Bit rate                                 : 2 668 Kbps
Maximum bit rate                         : 40.0 Mbps
Width                                    : 1 280 pixels
Height                                   : 544 pixels
Display aspect ratio                     : 2.35:1
Frame rate                               : 23.976 fps
Color space                              : YUV
Chroma subsampling                       : 4:2:0
Bit depth                                : 8 bits
Scan type                                : Progressive
Bits/(Pixel*Frame)                       : 0.160
Stream size                              : 2.40 GiB (73%)
Writing library                          : x264 core 98 r1649 c54c47d
Encoding settings                        : cabac=1 / ref=4 / deblock=1:0:0 / analyse=0x3:0x113 / me=hex / subme=7 / psy=1 / psy_rd=1.00:0.00 / mixed_ref=1 / me_range=16 / chroma_me=1 / trellis=1 / 8x8dct=1 / cqm=0 / deadzone=21,11 / fast_pskip=1 / chroma_qp_offset=-2 / threads=3 / sliced_threads=0 / slices=4 / nr=0 / decimate=1 / interlaced=0 / constrained_intra=0 / bframes=3 / b_pyramid=1 / b_adapt=1 / b_bias=0 / direct=1 / weightb=1 / weightp=0 / keyint=24 / keyint_min=2 / scenecut=40 / intra_refresh=0 / rc_lookahead=24 / rc=2pass / mbtree=1 / bitrate=2668 / ratetol=1.0 / qcomp=0.60 / qpmin=10 / qpmax=51 / qpstep=4 / cplxblur=20.0 / qblur=0.5 / vbv_maxrate=40000 / vbv_bufsize=30000 / ip_ratio=1.40 / aq=1:1.00 / nal_hrd=vbr
Language                                 : English
Default                                  : No
Forced                                   : No
Color primaries                          : BT.709-5, BT.1361, IEC 61966-2-4, SMPTE RP177
Transfer characteristics                 : BT.709-5, BT.1361
Matrix coefficients                      : BT.709-5, BT.1361, IEC 61966-2-4 709, SMPTE RP177
Audio #1
ID                                       : 2
Format                                   : AC-3
Format/Info                              : Audio Coding 3
Mode extension                           : CM (complete main)
Format settings, Endianness              : Big
Codec ID                                 : A_AC3
Duration                                 : 2h 12mn
Bit rate mode                            : Constant
Bit rate                                 : 448 Kbps
Channel(s)                               : 6 channels
Channel positions                        : Front: L C R, Side: L R, LFE
Sampling rate                            : 48.0 KHz
Bit depth                                : 16 bits
Compression mode                         : Lossy
Stream size                              : 424 MiB (13%)
Title                                    : Дубляж
Language                                 : Russian
Default                                  : Yes
Forced                                   : No
Audio #2
ID                                       : 4
Format                                   : AC-3
Format/Info                              : Audio Coding 3
Mode extension                           : CM (complete main)
Format settings, Endianness              : Big
Codec ID                                 : A_AC3
Duration                                 : 2h 12mn
Bit rate mode                            : Constant
Bit rate                                 : 448 Kbps
Channel(s)                               : 6 channels
Channel positions                        : Front: L C R, Side: L R, LFE
Sampling rate                            : 48.0 KHz
Bit depth                                : 16 bits
Compression mode                         : Lossy
Stream size                              : 424 MiB (13%)
Default                                  : No
Forced                                   : No
Text
ID                                       : 3
Format                                   : UTF-8
Codec ID                                 : S_TEXT/UTF8
Codec ID/Info                            : UTF-8 Plain Text
Title                                    : Sub Rus
Language                                 : Russian
Default                                  : Yes
Forced                                   : No

Скриншот c названием фильма

Скриншоты




Создавать темы 11-Мар-2015 18:44

[Профиль]  [ЛС] 

Strickland

Стаж: 2 года 5 месяцев

Сообщений: 7

Симпатии: 3

До BDRip битрейт не дотягивает !

Создавать темы 12-Мар-2015 14:22

[Профиль]  [ЛС] 

pirat

Стаж: 5 лет 4 месяца

Сообщений: 216

Симпатии: 63

Фильм супер. Спасибо автор.

Создавать темы 13-Мар-2015 00:08

[Профиль]  [ЛС] 

joka_feruz

Стаж: 3 года 6 месяцев

Сообщений: 4

Автор дайте скачать. Парни дайте скорость.

Создавать темы 21-Фев-2016 22:30

[Профиль]  [ЛС] 
Показать сообщения:    
Ответить на тему

Текущее время: 23-Авг 17:04

Часовой пояс: UTC + 5



Вы не можете начинать темы
Вы не можете отвечать на сообщения
Вы не можете редактировать свои сообщения
Вы не можете удалять свои сообщения
Вы не можете голосовать в опросах
Вы не можете прикреплять файлы к сообщениям
Вы не можете скачивать файлы