В поисках Картер / Finding Carter / Сезон: 1 полный / Серии: 1-12 из 12 (Роб Харди, Скотт Спир, Джеми Трэвис) [2014, драма, HDTVRip] (MVO : GALA Voices)

Ответить на тему
 

saidali ®

Стаж: 5 лет 6 месяцев

Сообщений: 868

Симпатии: 554

--В поисках Картер / Finding Carter-Полный Первый Сезон-- Год выпуска: 2014
Страна: США
Жанр: драма
Продолжительность: ~ 00:40:00-Перевод: Любительский многоголосый закадровый GALA Voices
Русские субтитры: нет
Режиссёр: Роб Харди, Скотт Спир, Джеми Трэвис-В ролях: Кэтрин Прескотт, Синтия Уэтрос, Анна Джэкоби-Херон, Зак Пуллам, Алексис Денисоф, Алекс Саксон, Джесси Хендерсон, Милена Гович, Ванесса Морган, Джесси Каррере и др.-Описание: Сериал расскажет о девушке по имени Картер, которая живёт со своей матерью Лори, но вскоре узнаёт, что была похищена ещё в младенчестве, и теперь Картер предстоит вернуться к своей настоящей семье. Она старается ужиться со своими настоящими родителями и сестрой, при этом не забывая о Лори.-Качество: HDTVRip
Формат: AVI
Видео кодек: XviD
Аудио кодек: MP3
Видео: 720x400 (1.80:1), 25 fps, XviD build 63 ~1580 kbps avg, 0.22 bit/pixel
Аудио: 48 kHz, MPEG Layer 3, 2 ch, ~192.00 kbps avg
-

MediaInfo

General
Complete name : F:\Фильмы\Сериалы\Finding Carterseason 01 [OLEG270877].avi\В поисках Картер s01e01-02.avi
Format : AVI
Format/Info : Audio Video Interleave
Format profile : OpenDML
File size : 1.03 GiB
Duration : 1h 22mn
Overall bit rate : 1 795 Kbps
Writing application : Lavf55.19.104
Video
ID : 0
Format : xvid
Codec ID : xvid
Duration : 1h 22mn
Bit rate : 1 586 Kbps
Width : 720 pixels
Height : 400 pixels
Display aspect ratio : 16:9
Frame rate : 25.000 fps
Bits/(Pixel*Frame) : 0.220
Stream size : 932 MiB (88%)
Audio
ID : 1
Format : MPEG Audio
Format version : Version 1
Format profile : Layer 3
Mode : Joint stereo
Mode extension : MS Stereo
Codec ID : 55
Codec ID/Hint : MP3
Duration : 1h 22mn
Bit rate mode : Constant
Bit rate : 192 Kbps
Channel(s) : 2 channels
Sampling rate : 48.0 KHz
Compression mode : Lossy
Stream size : 113 MiB (11%)
Alignment : Aligned on interleaves
Interleave, duration : 24 ms (0.60 video frame)
Interleave, preload duration : 72 ms
Writing library : LAME3.98.4

Скриншоты



Создавать темы 11-Мар-2015 20:01

[Профиль]  [ЛС] 
Показать сообщения:    
Ответить на тему

Текущее время: 24-Авг 13:49

Часовой пояс: UTC + 5



Вы не можете начинать темы
Вы не можете отвечать на сообщения
Вы не можете редактировать свои сообщения
Вы не можете удалять свои сообщения
Вы не можете голосовать в опросах
Вы не можете прикреплять файлы к сообщениям
Вы не можете скачивать файлы