Исход: Цари и боги / Exodus: Gods and Kings (Ридли Скотт | Ridley Scott) [2014, Великобритания,США, Испания, боевик, драма, приключения, WEB-DL 1080p] [«Он бросил вызов империи и изменил мир»] (Dub : [Лицензия])

Ответить на тему
 

farid8898 ®

Стаж: 3 года 10 месяцев

Сообщений: 18

Симпатии: 7

Исход: Цари и боги / Exodus: Gods and Kings
«Он бросил вызов империи и изменил мир»
Страна: Великобритания, США, Испания
Жанр: боевик, драма, приключения
Год выпуска: 2014
Продолжительность: 02:30:49
Перевод: Дублированный [Лицензия]
Cубтитры: нет
Режиссер: Ридли Скотт | Ridley Scott
В ролях: Кристиан Бэйл, Джоэл Эдгертон, Джон Туртурро, Аарон Пол, Бен Мендельсон, Мария Вальверде, Сигурни Уивер, Бен Кингсли, Хиам Аббасс, Исаак Эндрюс
Описание: Ветхозаветная история о великом пророке Моисее и освобождении еврейского народа из египетского плена. Моисей появился на свет в те времена, когда фараон приказал убивать всех новорожденных мальчиков еврейского происхождения. Чтобы спасти его, мать положила малыша в корзину из тростника и отправила вниз по Нилу. Ребенка нашла дочь фараона, которая усыновила его и растила рядом с Рамзесом — будущим фараоном. Много лет спустя, став мужчиной, Моисей бежит из Египта, а затем возвращается туда по велению Господа, чтобы избавить свой народ от оков рабства…

Доп. информация:
Сценарий: Адам Купер, Билл Колладж, Джефри Кейн
Продюсер: Питер Чернин, Марк Хаффам, Майкл Шефер
Оператор: Дариуш Вольски
Композитор: Альберто Иглесиас
Художник: Артур Макс, Рави Бансал, Алекс Камерон
Монтаж: Билли Рич
Бюджет: $140 000 000
Сборы в США: $65 014 513
Сборы в мире: + $202 267 423 = $267 281 936
Сборы в России: $17 497 162
Премьера (мир): 3 декабря 2014
Премьера (РФ): 1 января 2015, «Двадцатый Век Фокс СНГ»
Релиз на Blu-Ray: 9 апреля 2015, «Двадцатый Век Фокс СНГ»
Релиз на DVD: 9 апреля 2015, «Двадцатый Век Фокс СНГ»
Зрители: 3.04 млн
Возраст: зрителям, достигшим 12 лет
Рейтинг MPAA: детям до 13 лет просмотр не желателен
Качество видео: WEB-DL 1080p
Формат видео: MKV
Видео кодек: AVC
Аудио кодек: AC3
Видео: AVC, 4381 Kb/s, 1916x796, 23.976 fps
Аудио: AC3, 384 Kb/s, 48.0 KHz, (6 ch) | RUS
Аудио 2: AC3, 384 Kb/s, 48.0 KHz, (6 ch) | ENG

MediaInfo

General
Unique ID : 193477773089794470155849260689546923734 (0x918E76B38423E23EAD5CF55D4F71CED6)
Format : Matroska
Format version : Version 4 / Version 2
File size : 5.53 GiB
Duration : 2h 30mn
Overall bit rate : 5 253 Kbps
Encoded date : UTC 2015-03-03 19:15:11
Writing application : mkvmerge v6.9.1 ('Blue Panther') 64bit built on Apr 18 2014 18:23:38
Writing library : libebml v1.3.0 + libmatroska v1.4.1
Attachements : small_cover.jpg / small_cover_land.jpg / cover.jpg / cover_land.jpg
Video
ID : 1
Format : AVC
Format/Info : Advanced Video Codec
Format profile : [email protected]
Format settings, CABAC : Yes
Format settings, ReFrames : 5 frames
Codec ID : V_MPEG4/ISO/AVC
Duration : 2h 30mn
Bit rate : 4 381 Kbps
Width : 1 916 pixels
Height : 796 pixels
Display aspect ratio : 2.40:1
Frame rate mode : Constant
Frame rate : 23.976 fps
Color space : YUV
Chroma subsampling : 4:2:0
Bit depth : 8 bits
Scan type : Progressive
Bits/(Pixel*Frame) : 0.120
Stream size : 4.61 GiB (83%)
Language : English
Default : Yes
Forced : No
Color primaries : BT.709
Transfer characteristics : BT.709
Matrix coefficients : BT.709
Color range : Limited
Audio #1
ID : 2
Format : AC-3
Format/Info : Audio Coding 3
Mode extension : CM (complete main)
Format settings, Endianness : Big
Codec ID : A_AC3
Duration : 2h 30mn
Bit rate mode : Constant
Bit rate : 384 Kbps
Channel(s) : 6 channels
Channel positions : Front: L C R, Side: L R, LFE
Sampling rate : 48.0 KHz
Bit depth : 16 bits
Compression mode : Lossy
Stream size : 414 MiB (7%)
Language : Russian
Default : Yes
Forced : No
Audio #2
ID : 3
Format : AC-3
Format/Info : Audio Coding 3
Mode extension : CM (complete main)
Format settings, Endianness : Big
Codec ID : A_AC3
Duration : 2h 30mn
Bit rate mode : Constant
Bit rate : 384 Kbps
Channel(s) : 6 channels
Channel positions : Front: L C R, Side: L R, LFE
Sampling rate : 48.0 KHz
Bit depth : 16 bits
Compression mode : Lossy
Stream size : 414 MiB (7%)
Language : English
Default : No
Forced : No
Menu
00:00:00.000 : en:Chapter 01
00:03:54.000 : en:Chapter 02
00:06:50.000 : en:Chapter 03
00:11:46.000 : en:Chapter 04
00:14:27.000 : en:Chapter 05
00:18:35.000 : en:Chapter 06
00:22:13.000 : en:Chapter 07
00:26:48.000 : en:Chapter 08
00:30:28.000 : en:Chapter 09
00:36:38.000 : en:Chapter 10
00:40:44.000 : en:Chapter 11
00:44:46.000 : en:Chapter 12
00:48:43.000 : en:Chapter 13
00:51:12.000 : en:Chapter 14
00:54:18.000 : en:Chapter 15
00:57:28.000 : en:Chapter 16
01:00:26.000 : en:Chapter 17
01:04:36.000 : en:Chapter 18
01:06:44.000 : en:Chapter 19
01:10:56.000 : en:Chapter 20
01:16:48.000 : en:Chapter 21
01:21:12.000 : en:Chapter 22
01:24:24.000 : en:Chapter 23
01:28:02.000 : en:Chapter 24
01:30:47.000 : en:Chapter 25
01:34:08.000 : en:Chapter 26
01:37:13.000 : en:Chapter 27
01:39:13.000 : en:Chapter 28
01:42:33.000 : en:Chapter 29
01:46:42.000 : en:Chapter 30
01:48:55.000 : en:Chapter 31
01:52:10.000 : en:Chapter 32
01:57:21.000 : en:Chapter 33
02:00:15.000 : en:Chapter 34
02:05:32.000 : en:Chapter 35
02:07:22.000 : en:Chapter 36
02:13:29.000 : en:Chapter 37
02:16:12.000 : en:Chapter 38
02:19:30.000 : en:Chapter 39
02:23:10.000 : en:Chapter 40

Скриншоты



Создавать темы 11-Мар-2015 23:05

[Профиль]  [ЛС] 

vanfank

Стаж: 4 года 3 месяца

Сообщений: 141

Симпатии: 5

Слоган круче фильма! фильм ужасен!

Создавать темы 13-Мар-2015 12:18

[Профиль]  [ЛС] 
Показать сообщения:    
Ответить на тему

Текущее время: 19-Авг 19:50

Часовой пояс: UTC + 5



Вы не можете начинать темы
Вы не можете отвечать на сообщения
Вы не можете редактировать свои сообщения
Вы не можете удалять свои сообщения
Вы не можете голосовать в опросах
Вы не можете прикреплять файлы к сообщениям
Вы не можете скачивать файлы