Визитеры / V / (Сезон: 1 / Серии: 1-12 из 12) (Сезон: 2 / Серии: 1-10 из 10) (Ив Симоно, Дэвид Баррет, Брайан Спайсер, ...) [2009, фантастика, триллер, драма, WEB-DLRip] LostFilm

Ответить на тему
 

igor1968 ®

Стаж: 5 лет 8 месяцев

Сообщений: 366

Симпатии: 197

Визитеры / V«We are of peace. Always» Год выпуска: 2009 - 2011
Страна: Канада, США
Жанр: фантастика, триллер, драма, ...
Продолжительность: ~00.43.00
Перевод: Полное дублирование
Русские субтитры: нет
Режиссёр: Ив Симоно, Дэвид Баррет, Брайан Спайсер, ...
В ролях: Элизабет Митчелл
Морена Баккарин
Моррис Честнат
Джоэль Гретш
Чарльз Межер
Логан Хаффман
Лора Вандервурт
Скотт Вулф
Кристофер Шайер
Марк Хилдрет
...-Роли дублировали:
Анна Геллер
Елена Шульман
Станислав Концевич
Валерий Соловьев
Михаил Хрусталев
...-Доп. инфо о переводе: В. Богданов. / Студия "Кравец". - Сегодня весь мир проснулся и увидел, что над каждым городом парят космические корабли. Прибывшие утверждают что пришли с миром, и предлагают подарки в виде медицинских открытий и технологических усовершенствований. Они обещают, что не навредят. Они лгут. Большинство человечества верит, что чужие прибыли как раз тогда, когда мы в них нуждались. Люди с радостью принимают их помощь.
Но во время расследования террористической ячейки агент госбезопасности Эрика Эванс обнаруживает нечто вовсе не безобидное. Когда ее напарник пытается ее убить, Эрика обнаруживает, что пришельцы планируют внедриться в правительства и крупные корпорации, чтобы в будущем захватить все человечество. Но убедить в этом остальных практически невозможно, ведь в руках пришельцев два мощных козыря. Во-первых, они завоевали веру и любовь людей, благодаря своим подаркам. Во-вторых, они взяли под контроль почти всех подростков.
Тысячи подростков, включая сына Эрики, были назначены «послами мира», но на самом деле они шпионят для пришельцев, не подозревая об этом. Эрика вынуждена вступить в движение сопротивления, где она знакомится с Райаном, пришельцем, который хочет спасти человечество. Эрике придется находить равновесие между сопротивлением, работой, и заботой о своем сыне, который принял сторону врагов.-Доп. информация:
сценарий: Кеннет Джонсон, Скотт Питерс, Грегг Харвитц, ...
продюсер: Кэти Гилрой-Серида, Джейсон Холл, Стив Перлман, ...
оператор: Стивен Джексон, Дэвид Франко
композитор: Марко Белтрами, Норман Корбей
художник: Стивен Джигэн, Йен Д. Томас, Сьюзэн Паркер, ...
монтаж: Джеффри Хилдрю, Джонатан Чибнелл, Джошуа Чарсон, ...-премьера:
3 ноября 2009, ...- - -1 сезон полностью-2 сезон полностью-

Визитеры / V (список серий)

Визитеры / V (1сезон)

01.1 сезон 1 серия Пилотная серия
02. Прежняя жизнь окончена (There Is No Normal Anymore).
03.Новый день (A Bright New Day).
04.Всё только начинается (It's Only the Beginning).
05.Война началась (Welcome to the War).
06.Фунт мяса (Pound of Flesh).
07.Джон Мэй (John May).
08.Мы не сможем победить (We Can't Win).
09.Вилка еретика (Heretic's Fork).
10.Разум и душа (Hearts and Minds).
11.Достижение цели (Fruition).
12.Красное небо (Red Sky).-Качество: WEB-DLRip
Формат: AVI
Видео кодек: XviD
Аудио кодек: MPEG Layer
Видео: 624x352 (1.77:1), 23.976 fps, XviD build 50, 1130 kbps avg, 0.21 bit/pixel.
Аудио: 48 kHz, MPEG Layer 3, 2 ch, 128.00 kbps avg.-

MediaInfo

General
Complete name : V 1 - LostFilm.TV\V.s01e01.rus.PROPER.LostFilm.TV.avi
Format : AVI
Format/Info : Audio Video Interleave
File size : 426 MiB
Duration : 47mn 10s
Overall bit rate : 1 262 Kbps
Writing application : Nandub v1.0rc2
Writing library : Nandub build 1852/release
Video
ID : 0
Format : MPEG-4 Visual
Format profile : Advanced [email protected]
Format settings, BVOP : Yes
Format settings, QPel : No
Format settings, GMC : No warppoints
Format settings, Matrix : Custom
Codec ID : XVID
Codec ID/Hint : XviD
Duration : 47mn 10s
Bit rate : 1 075 Kbps
Width : 624 pixels
Height : 352 pixels
Display aspect ratio : 16:9
Frame rate : 23.976 fps
Color space : YUV
Chroma subsampling : 4:2:0
Bit depth : 8 bits
Scan type : Progressive
Compression mode : Lossy
Bits/(Pixel*Frame) : 0.204
Stream size : 363 MiB (85%)
Writing library : XviD 1.2.1 (UTC 2008-12-04)
Audio
ID : 1
Format : MPEG Audio
Format version : Version 1
Format profile : Layer 3
Mode : Joint stereo
Mode extension : MS Stereo
Codec ID : 55
Codec ID/Hint : MP3
Duration : 47mn 10s
Bit rate mode : Constant
Bit rate : 128 Kbps
Channel count : 2 channels
Sampling rate : 48.0 KHz
Compression mode : Lossy
Stream size : 43.2 MiB (10%)
Alignment : Aligned on interleaves
-

Скриншоты









Визитеры / V (2сезон)

01.Красный дождь (Red Rain)
02.Змеиный зуб (Serpent's Tooth)
03.Обнажая суть (Laid Bare)
04.Темный альянс (Unholy Alliance)
05.Конкордия (Concordia).
06.Осада (Siege)
07.Муки рождения (Birth Pangs).
08.Мозговой штурм (Uneasy Lies the Head).
09.Дьявол в голубом (Devil in a Blue Dress)
10.День матери (Mother's Day).-Качество: WEB-DLRip
Формат: AVI
Видео кодек: XviD
Аудио кодек: MPEG Layer
Видео: 704x400 (1.76:1), 23.976 fps, XviD MPEG-4 ~1394 kbps avg, 0.21 bit/pixel
Аудио: 48 kHz, MPEG Layer 3, 2 ch, ~188.38 kbps avg-

MediaInfo

General
Complete name : V.s02e01.PROPER.rus.avi
Format : AVI
Format/Info : Audio Video Interleave
File size : 480 MiB
Duration : 42mn 5s
Overall bit rate mode : Variable
Overall bit rate : 1 596 Kbps
Writing application : Nandub v1.0rc2
Writing library : Nandub build 1853/release
Video
ID : 0
Format : MPEG-4 Visual
Format profile : [email protected]
Format settings, BVOP : No
Format settings, QPel : No
Format settings, GMC : No warppoints
Format settings, Matrix : Default (H.263)
Codec ID : XVID
Codec ID/Hint : XviD
Duration : 42mn 5s
Bit rate : 1 395 Kbps
Width : 704 pixels
Height : 400 pixels
Display aspect ratio : 16:9
Frame rate : 23.976 fps
Color space : YUV
Chroma subsampling : 4:2:0
Bit depth : 8 bits
Scan type : Progressive
Compression mode : Lossy
Bits/(Pixel*Frame) : 0.207
Stream size : 420 MiB (87%)
Writing library : XviD 1.2.1 (UTC 2008-12-04)
Audio
ID : 1
Format : MPEG Audio
Format version : Version 1
Format profile : Layer 3
Mode : Joint stereo
Mode extension : MS Stereo
Codec ID : 55
Codec ID/Hint : MP3
Duration : 42mn 5s
Bit rate mode : Variable
Bit rate : 192 Kbps
Channel count : 2 channels
Sampling rate : 48.0 KHz
Compression mode : Lossy
Stream size : 56.7 MiB (12%)
Alignment : Aligned on interleaves
Interleave, duration : 24 ms (0.58 video frame)
Interleave, preload duration : 493 ms
Writing library : LAME3.97b
Encoding settings : -m j -V 4 -q 3 -lowpass 18.6 --abr 192
-

Скриншоты







- -

Создавать темы 12-Мар-2015 03:01

[Профиль]  [ЛС] 

azamat5555

Стаж: 5 лет 7 месяцев

Сообщений: 56

Симпатии: 17

Устал звать скачавших данный релиз... ухожу со своими 12 процентами скачанного...

Создавать темы 10-Апр-2015 05:59

[Профиль]  [ЛС] 
Показать сообщения:    
Ответить на тему

Текущее время: 18-Ноя 22:53

Часовой пояс: UTC + 5



Вы не можете начинать темы
Вы не можете отвечать на сообщения
Вы не можете редактировать свои сообщения
Вы не можете удалять свои сообщения
Вы не можете голосовать в опросах
Вы не можете прикреплять файлы к сообщениям
Вы не можете скачивать файлы