Плохой лейтенант / Bad Lieutenant (Абель Феррара) [1992, США, драма, криминал, DVDRip-AVC] 2 х (AVO) + Original + Sub (Rus, Eng)

Ответить на тему
 

lotto ®

Стаж: 7 лет 9 месяцев

Сообщений: 221

Симпатии: 409

Плохой лейтенант / Bad Lieutenant
«Gambler...Thief... Junkie... Killer...Cop»
-- Страна: США
Жанр: драма, криминал
Год выпуска: 1992
Продолжительность: 01:36:24
Перевод: Авторский (одноголосый закадровый)
Cубтитры: есть
Оригинальная аудиодорожка: английский--Режиссер: Абель Феррара
В ролях: Харви Кейтел, Виктор Арго, Пол Кэлдерон, Леонард Л. Томас, Робин Барроуз, Фрэнки Торн, Виктория Бэстел, Пол Хипп, Брайан МакЭлрой, Фрэнки Аччарито--Описание: Плохой лейтенант - это самый настоящий подонок. Он продаёт изъятые у барыг наркотики, в служебное время регулярно предаётся разврату, отнимает награбленное у грабителей, активно употребляет наркотики сам, а ворованные денежки проигрывает в бейсбольном тотализаторе.
Настоящий, без прикрас, слуга закона: наркоман, игрок, вор, убийца. Полисмен. Однако даже у настоящего подонка нет-нет да и шевельнётся в самой глубине сгнившей души что-то человеческое. Так происходит и здесь, когда лейтенант с корыстными целями впрягается в расследование по делу изнасилованной католической монашки.-- --Качество видео: DVDRip-AVC
Формат видео: MKV
Видео: x264, [email protected], 1042 kbps, 23.976 fps
Аудио: AC3, 48 KHz, 2 ch, 192 kbps (русский,одноголосый) Гаврилов
Аудио 2: AC3, 48 KHz, 2 ch, 192 kbps (русский,одноголосый) Гоблин
Аудио 3: AC3, 48 KHz, 2 ch, 192 kbps (английский)
Формат субтитров: softsub (SRT)
Доп. информация о субтитрах: русские, английские

MediaInfo

General
Unique ID : 176032145713831651463138517088218698045 (0x846E8EDD0D8F172F87975095B454D13D)
Complete name : \Bad.Lieutenant.1992.DVDRip.AVC.rus.eng.sub.mkv
Format : Matroska
Format version : Version 2
File size : 1.09 GiB
Duration : 1h 36mn
Overall bit rate : 1 618 Kbps
Movie name : Bad.Lieutenant.1992.DVDRip.AVC.rus.eng.sub.[zone33.ru].mkv
Encoded date : UTC 2009-07-15 06:08:42
Writing application : mkvmerge v2.9.0 ('Moanin'') built on May 22 2009 17:46:31
Writing library : libebml v0.7.7 + libmatroska v0.8.1
Video
ID : 1
Format : AVC
Format/Info : Advanced Video Codec
Format profile : [email protected]
Format settings, CABAC : Yes
Format settings, ReFrames : 5 frames
Codec ID : V_MPEG4/ISO/AVC
Duration : 1h 36mn
Bit rate : 1 042 Kbps
Width : 720 pixels
Height : 464 pixels
Display aspect ratio : 16:9
Original display aspect rat : 16:10
Frame rate mode : Constant
Frame rate : 23.976 fps
Color space : YUV
Chroma subsampling : 4:2:0
Bit depth : 8 bits
Scan type : Progressive
Bits/(Pixel*Frame) : 0.130
Stream size : 697 MiB (62%)
Writing library : x264 core 68 r1181M 49bf767
Encoding settings : cabac=1 / ref=5 / deblock=1:-2:-3 / analyse=0x3:0x133 / me=umh / subme=7 / psy_rd=1.0:0.8 / mixed_ref=1 / me_range=16 / chroma_me=1 / trellis=2 / 8x8dct=1 / cqm=0 / deadzone=21,11 / chroma_qp_offset=-4 / threads=3 / nr=0 / decimate=1 / mbaff=0 / bframes=3 / b_pyramid=1 / b_adapt=2 / b_bias=0 / direct=3 / wpredb=1 / keyint=250 / keyint_min=25 / scenecut=40 / rc=2pass / bitrate=1042 / ratetol=1.0 / qcomp=0.60 / qpmin=10 / qpmax=51 / qpstep=4 / cplxblur=20.0 / qblur=0.5 / ip_ratio=1.40 / pb_ratio=1.30 / aq=1:1.00
Language : English
Default : Yes
Forced : No
Audio #1
ID : 2
Format : AC-3
Format/Info : Audio Coding 3
Mode extension : CM (complete main)
Format settings, Endianness : Big
Codec ID : A_AC3
Duration : 1h 36mn
Bit rate mode : Constant
Bit rate : 192 Kbps
Channel(s) : 2 channels
Channel positions : Front: L R
Sampling rate : 48.0 KHz
Bit depth : 16 bits
Compression mode : Lossy
Stream size : 132 MiB (12%)
Title : Gavrilov
Language : Russian
Default : Yes
Forced : No
Audio #2
ID : 3
Format : AC-3
Format/Info : Audio Coding 3
Mode extension : CM (complete main)
Format settings, Endianness : Big
Codec ID : A_AC3
Duration : 1h 36mn
Bit rate mode : Constant
Bit rate : 192 Kbps
Channel(s) : 2 channels
Channel positions : Front: L R
Sampling rate : 44.1 KHz
Bit depth : 16 bits
Compression mode : Lossy
Delay relative to video : 7s 1ms
Stream size : 132 MiB (12%)
Title : Goblin
Language : Russian
Default : No
Forced : No
Audio #3
ID : 4
Format : AC-3
Format/Info : Audio Coding 3
Mode extension : CM (complete main)
Format settings, Endianness : Big
Codec ID : A_AC3
Duration : 1h 36mn
Bit rate mode : Constant
Bit rate : 192 Kbps
Channel(s) : 2 channels
Channel positions : Front: L R
Sampling rate : 48.0 KHz
Bit depth : 16 bits
Compression mode : Lossy
Stream size : 132 MiB (12%)
Language : English
Default : No
Forced : No
Text #1
ID : 5
Format : UTF-8
Codec ID : S_TEXT/UTF8
Codec ID/Info : UTF-8 Plain Text
Language : Russian
Default : Yes
Forced : No
Text #2
ID : 6
Format : UTF-8
Codec ID : S_TEXT/UTF8
Codec ID/Info : UTF-8 Plain Text
Language : English
Default : No
Forced : No

Скриншот c названием фильма

Скриншоты






Создавать темы 12-Мар-2015 09:00

[Профиль]  [ЛС] 

Топик был перенесен из форума Фильмы до 2010 в форум HD-AVC
Grock

Создавать темы 12-Мар-2015 12:07

 
Показать сообщения:    
Ответить на тему

Текущее время: 21-Окт 01:00

Часовой пояс: UTC + 5



Вы не можете начинать темы
Вы не можете отвечать на сообщения
Вы не можете редактировать свои сообщения
Вы не можете удалять свои сообщения
Вы не можете голосовать в опросах
Вы не можете прикреплять файлы к сообщениям
Вы не можете скачивать файлы