Обратный след / Catchfire (Деннис Хоппер) [1990, США, боевик, триллер, драма, мелодрама, комедия, криминал, DVDRip] DVO (НТВ+)

Ответить на тему
 

lotto ®

Стаж: 7 лет 8 месяцев

Сообщений: 221

Симпатии: 409

Обратный след / Catchfire
«When murder is your business, you'd better not fall in love with your work»
-- Страна: США
Жанр: боевик, триллер, драма, мелодрама, комедия, криминал
Год выпуска: 1990
Продолжительность: 01:35:06
Перевод: Профессиональный (двухголосый закадровый)
Cубтитры: нет--Режиссер: Деннис Хоппер
В ролях: Деннис Хоппер, Джоди Фостер, Джо Пеши, Дин Стокуэлл, Винсент Прайс, Джон Туртурро, Фред Уорд, Джули Адамс, Тони Сирико, Сай Ричардсон, Фрэнк Джио--Описание: Художница-авангардистка Энн Бентон (Джоди Фостер) случайно становится свидетельницей мафиозных разборок: на ее глазах убивают человека. Девушка обращается в полицию, где ей предлагают стать участницей программы защиты свидетелей. Энн готова согласиться, но, заметив в участке одного из мафиози, снова убегает. Ее задача усложняется тем, что теперь ей приходится скрываться и от мафии, и от ФБР. Чтобы «убрать» свидетельницу, мафиози нанимают опытного киллера (Деннис Хоппер). Но убийца, влюбившись в жертву, становится ее защитником…-- --Качество видео: DVDRip
Формат видео: AVI
Видео: XviD, 704x384, 2025 kbps, 25 fps
Аудио: AC3, 48 KHz, 2 ch, 192 kbps (русский, двухголосый) НТВ+

MediaInfo

General
Complete name : \Catchfire.1990.DVDRip.avi
Format : AVI
Format/Info : Audio Video Interleave
File size : 1.48 GiB
Duration : 1h 35mn
Overall bit rate : 2 227 Kbps
Movie name : Catchfire
Recorded date : 1990
Writing application : VirtualDubMod 1.5.10.3 | www.virtualdub-fr.org || (build 2550/release)
Writing library : VirtualDubMod build 2550/release
Comment : lotto
Video
ID : 0
Format : MPEG-4 Visual
Format profile : Advanced [email protected]
Format settings, BVOP : 1
Format settings, QPel : No
Format settings, GMC : No warppoints
Format settings, Matrix : Custom
Codec ID : XVID
Codec ID/Hint : XviD
Duration : 1h 35mn
Bit rate : 2 025 Kbps
Width : 704 pixels
Height : 384 pixels
Display aspect ratio : 1.85:1
Frame rate : 25.000 fps
Color space : YUV
Chroma subsampling : 4:2:0
Bit depth : 8 bits
Scan type : Progressive
Compression mode : Lossy
Bits/(Pixel*Frame) : 0.300
Stream size : 1.35 GiB (91%)
Writing library : XviD 65
Audio
ID : 1
Format : AC-3
Format/Info : Audio Coding 3
Mode extension : CM (complete main)
Format settings, Endianness : Big
Codec ID : 2000
Duration : 1h 35mn
Bit rate mode : Constant
Bit rate : 192 Kbps
Channel(s) : 2 channels
Channel positions : Front: L R
Sampling rate : 48.0 KHz
Bit depth : 16 bits
Compression mode : Lossy
Stream size : 131 MiB (9%)
Alignment : Split accross interleaves
Interleave, duration : 40 ms (1.00 video frame)
Interleave, preload duratio : 500 ms

Скриншот c названием фильма

Скриншоты








Последний раз редактировалось: lotto (2015-03-12 09:36), всего редактировалось 1 раз

Создавать темы 12-Мар-2015 09:22

[Профиль]  [ЛС] 

lotto ®

Стаж: 7 лет 8 месяцев

Сообщений: 221

Симпатии: 409

Тот случай, когда рейтинг не отражает уровень материала, получилось бесшабашное кино с отличным актерским составом.

Создавать темы 12-Мар-2015 09:33

[Профиль]  [ЛС] 
Показать сообщения:    
Ответить на тему

Текущее время: 21-Сен 01:04

Часовой пояс: UTC + 5



Вы не можете начинать темы
Вы не можете отвечать на сообщения
Вы не можете редактировать свои сообщения
Вы не можете удалять свои сообщения
Вы не можете голосовать в опросах
Вы не можете прикреплять файлы к сообщениям
Вы не можете скачивать файлы