Блич (фильм второй): Восстание Алмазной Пыли / Пыли / Bleach: The DiamondDust Rebellion (Абэ Нориюки / Abe Noriyuki) [2007, приключения, фэнтези, сёнэн, HDRip, 576х320]

Ответить на тему
 

LLIeJIecm ®

Стаж: 5 лет 1 месяц

Сообщений: 20

Симпатии: 13

Блич : Восстание Алмазной Пыли
Оригинальное название: 劇場版 BLEACH The DiamondDust Rebellion もう一つの氷輪丸
Английское название: Пыли / Bleach: The DiamondDust Rebellion-Год выпуска: 2007
Страна: Япония
Жанр:Приключения, фэнтези, сёнэн
Продолжительность: 92 мин
Перевод : Любительский Одноголосый VaLLar
Субтитры: есть
Дата выхода: 22.12.2007
Режиссёр: Абэ Нориюки
Студия: -Описание: В обществе душ ЧП - группой неизвестных похищен ценный артефакт "Королевская Печать". На разрешение проблемы и для поиска похитителей брошены лучшие силы Общества Душ, но постепенно проблема начинает выходить за рамки мира Шинигами, да что проблема - само время нарушает свой ход. И бравый Куросаки-кун, на пару с Ренджи и Рукией вновь должны встать на защиту мира.. но все идет не так гладко, ведь за похищением стоит никто иной, как Хитсугая Тоусиро, один из капитанов Готэй-13.-Качество: BDRip
Формат: *.mp4
Видео кодек: H.264
Аудио кодек: ААС
Разрешение: 576х320
Другие параметры видео: 960 Кбит/сек, 16:9, 23,976 кадр/сек
Аудио : 160 Кбит/сек, 2 канала(ов), 48,0 КГц
Аудио : 160 Кбит/сек, 2 канала(ов), 48,0 КГц

MediaInfo

Формат : MPEG-4
Профиль формата : Base Media / Version 2
Идентификатор кодека : mp42
Размер файла : 853 Мбайт
Продолжительность : 1 ч. 32 м.
Общий поток : 1285 Кбит/сек
Жанр : Adventure
Дата кодирования : 2007
Дата пометки : UTC 2012-02-03 10:16:13
Программа кодирования : HandBrake 0.9.5 2011010300
Обложка : Yes
Видео
Идентификатор : 1
Формат : AVC
Формат/Информация : Advanced Video Codec
Профиль формата : Baseline@L3.0
Параметр CABAC формата : Нет
Параметр ReFrames формата : 4 кадры
Идентификатор кодека : avc1
Идентификатор кодека/Информация : Advanced Video Coding
Продолжительность : 1 ч. 32 м.
Вид битрейта : Переменный
Битрейт : 960 Кбит/сек
Ширина : 576 пикс.
Высота : 320 пикс.
Соотношение сторон : 16:9
Режим частоты кадров : Переменный
Частота кадров : 23,976 кадр/сек
Минимальная частота кадров : 23,974 кадр/сек
Максимальная частота кадров : 23,981 кадр/сек
Цветовое пространство : YUV
Подвыборка цветности : 4:2:0
Битовая глубина : 8 бит
Тип развёртки : Прогрессивная
Бит/(Пиксели*Кадры) : 0.217
Размер потока : 637 Мбайт (75%)
Библиотека кодирования : x264 core 112
Настройки программы : cabac=0 / ref=4 / deblock=1:0:0 / analyse=0x1:0x131 / me=umh / subme=6 / psy=1 / psy_rd=0.00:0.00 / mixed_ref=1 / me_range=16 / chroma_me=1 / trellis=0 / 8x8dct=0 / cqm=0 / deadzone=21,11 / fast_pskip=0 / chroma_qp_offset=0 / threads=6 / sliced_threads=0 / nr=0 / decimate=1 / interlaced=0 / constrained_intra=0 / bframes=0 / weightp=0 / keyint=240 / keyint_min=23 / scenecut=40 / intra_refresh=0 / rc_lookahead=40 / rc=2pass / mbtree=1 / bitrate=960 / ratetol=1.0 / qcomp=0.60 / qpmin=3 / qpmax=51 / qpstep=4 / cplxblur=20.0 / qblur=0.5 / ip_ratio=1.40 / aq=1:1.00
Дата кодирования : UTC 2012-02-03 09:55:03
Дата пометки : UTC 2012-02-03 10:14:44
Основные цвета : BT.709-5, BT.1361, IEC 61966-2-4, SMPTE RP177
Характеристики трансфера : BT.709-5, BT.1361
Коэффициенты матрицы : BT.709-5, BT.1361, IEC 61966-2-4 709, SMPTE RP177
Аудио #1
Идентификатор : 2
Формат : AAC
Формат/Информация : Advanced Audio Codec
Профиль формата : LC
Идентификатор кодека : 40
Продолжительность : 1 ч. 32 м.
Вид битрейта : Переменный
Битрейт : 160 Кбит/сек
Максимальный битрейт : 307 Кбит/сек
Канал(ы) : 2 канала(ов)
Расположение каналов : Front: L R
Частота : 44,1 КГц
Метод сжатия : С потерями
Размер потока : 106 Мбайт (12%)
Язык : Russian
Дата кодирования : UTC 2012-02-03 09:55:03
Дата пометки : UTC 2012-02-03 10:14:43
Аудио #2
Идентификатор : 3
Формат : AAC
Формат/Информация : Advanced Audio Codec
Профиль формата : LC
Идентификатор кодека : 40
Продолжительность : 1 ч. 32 м.
Вид битрейта : Переменный
Битрейт : 160 Кбит/сек
Максимальный битрейт : 334 Кбит/сек
Канал(ы) : 2 канала(ов)
Расположение каналов : Front: L R
Частота : 48,0 КГц
Метод сжатия : С потерями
Размер потока : 106 Мбайт (12%)
Язык : Japanese
Дата кодирования : UTC 2012-02-03 09:55:03
Дата пометки : UTC 2012-02-03 10:14:43
Текст
Идентификатор : 4
Формат : Timed text
Режим смешивания : sbtl
Идентификатор кодека : tx3g
Продолжительность : 1 ч. 32 м.
Вид битрейта : Переменный
Битрейт : 83 бит/сек
Размер потока : 56,2 Кбайт (0%)
Язык : Russian
Дата кодирования : UTC 2012-02-03 09:55:03
Дата пометки : UTC 2012-02-03 10:14:42

Скриншоты



Последний раз редактировалось: LLIeJIecm (2015-03-13 07:30), всего редактировалось 1 раз

Создавать темы 12-Мар-2015 23:17

[Профиль]  [ЛС] 

daniellya

Стаж: 5 лет 6 месяцев

Сообщений: 338

Симпатии: 29

Раздача будет?

Создавать темы 15-Мар-2015 18:48

[Профиль]  [ЛС] 

LLIeJIecm ®

Стаж: 5 лет 1 месяц

Сообщений: 20

Симпатии: 13

925957Раздача будет?
странно,у меня все норм, отдачи нет почему то...

Создавать темы 15-Мар-2015 21:43

[Профиль]  [ЛС] 

daniellya

Стаж: 5 лет 6 месяцев

Сообщений: 338

Симпатии: 29

О, докачалось, спасибо.
Выложишь ли остальные мувики?

Создавать темы 08-Апр-2015 00:25

[Профиль]  [ЛС] 

LLIeJIecm ®

Стаж: 5 лет 1 месяц

Сообщений: 20

Симпатии: 13

929591О, докачалось, спасибо.
Выложишь ли остальные мувики?
ок, заранее, пардон за скорость... aa

Создавать темы 08-Апр-2015 17:43

[Профиль]  [ЛС] 
Показать сообщения:    
Ответить на тему

Текущее время: 23-Окт 09:30

Часовой пояс: UTC + 5



Вы не можете начинать темы
Вы не можете отвечать на сообщения
Вы не можете редактировать свои сообщения
Вы не можете удалять свои сообщения
Вы не можете голосовать в опросах
Вы не можете прикреплять файлы к сообщениям
Вы не можете скачивать файлы