Непорочная Мария / Junketsu no Maria (Танигути Горо) [TV] [Без хардсаба] [01-12 из 12] [RUS] [2015г., приключения, фэнтези HDTV-Rip] [720p]

Ответить на тему
 

SoluSoull ®

Стаж: 2 года 7 месяцев

Сообщений: 379

Симпатии: 452

Junketsu no Maria
Непорочная Мария-Производство: Япония
Год выпуска: 2015
Жанр: приключения, фэнтези
Тип: ТВ (12 эп.), 25 мин.-Перевод:
Озвучка от ADStudio (anidub)-Режиссёр: Танигути Горо
Автор оригинала: Исикава Масаюки
Студия: PRODUCTION I.G-Описание: Мария - молодая ведьма, которая живет в то время, когда Англия воевала против Франции. Наша юная героиня не любит войну, и пытается сохранить мир с небольшой помощью от суккуба, который заманивает генералов ее прелестями. Хотя Мария приказала ей делать это, она все еще девственница.-Качество: HDTVrip \ Формат: MP4
Тип видео: без хардсаба
Видео: AVC, 1280х720(16/9), 2280 Kbps, 23.976fps, 8 bits
Аудио: AAC, 2 ch, 163кбит/с, 48000Hz-

Скриншоты

MI

General
Complete name : E:\Downloads\Junketsu no Maria\[AniDub]_Junketsu_no_Maria_[01]_[720p_x264_Aac]_[ADStudio].mp4
Format : MPEG-4
Format profile : Base Media
Codec ID : isom
File size : 391 MiB
Duration : 23mn 59s
Overall bit rate mode : Variable
Overall bit rate : 2 280 Kbps
Encoded date : UTC 2015-01-25 20:53:09
Tagged date : UTC 2015-01-25 20:53:09
Writing application : Yamb 2.1.0.0 [http://yamb.unite-video.com]
Video
ID : 2
Format : AVC
Format/Info : Advanced Video Codec
Format profile : [email protected]
Format settings, CABAC : Yes
Format settings, ReFrames : 4 frames
Codec ID : avc1
Codec ID/Info : Advanced Video Coding
Duration : 23mn 59s
Bit rate : 2 113 Kbps
Maximum bit rate : 14.8 Mbps
Width : 1 280 pixels
Height : 720 pixels
Display aspect ratio : 16:9
Frame rate mode : Constant
Frame rate : 23.976 fps
Color space : YUV
Chroma subsampling : 4:2:0
Bit depth : 8 bits
Scan type : Progressive
Bits/(Pixel*Frame) : 0.096
Stream size : 363 MiB (93%)
Title : www.AniDub.com
Writing library : x264 core 129 r2245+729M 1a52e03
Encoding settings : cabac=1 / ref=4 / deblock=1:1:-1 / analyse=0x3:0x113 / me=umh / subme=9 / psy=1 / fade_compensate=0.00 / psy_rd=1.00:0.00 / mixed_ref=1 / me_range=24 / chroma_me=1 / trellis=2 / 8x8dct=1 / cqm=0 / deadzone=21,11 / fast_pskip=1 / chroma_qp_offset=-2 / threads=8 / lookahead_threads=1 / sliced_threads=0 / nr=0 / decimate=1 / interlaced=0 / bluray_compat=0 / constrained_intra=0 / fgo=0 / bframes=9 / b_pyramid=2 / b_adapt=2 / b_bias=0 / direct=1 / weightb=1 / open_gop=0 / weightp=2 / keyint=240 / keyint_min=24 / scenecut=40 / intra_refresh=0 / rc=crf / mbtree=0 / crf=18.5 / qcomp=0.72 / qpmin=0 / qpmax=69 / qpstep=4 / ip_ratio=1.40 / pb_ratio=1.30 / aq=1:0.85
Encoded date : UTC 2015-01-12 03:18:16
Tagged date : UTC 2015-01-25 20:54:38
Color primaries : BT.709
Transfer characteristics : BT.709
Matrix coefficients : BT.709
Color range : Limited
Audio
ID : 1
Format : AAC
Format/Info : Advanced Audio Codec
Format profile : LC
Codec ID : 40
Duration : 23mn 59s
Bit rate mode : Variable
Bit rate : 163 Kbps
Maximum bit rate : 214 Kbps
Channel(s) : 2 channels
Channel positions : Front: L R
Sampling rate : 48.0 KHz
Compression mode : Lossy
Stream size : 27.9 MiB (7%)
Language : Russian
Encoded date : UTC 2015-01-25 20:53:09
Tagged date : UTC 2015-01-25 20:54:38


Последний раз редактировалось: SoluSoull (2015-04-17 09:34), всего редактировалось 4 раз(а)

Создавать темы 13-Мар-2015 09:48

[Профиль]  [ЛС] 

[email protected]

Стаж: 4 года 3 месяца

Сообщений: 336

Симпатии: 143

Не забывайте указывать названия и в самой теме.

Создавать темы 13-Мар-2015 10:13

[Профиль]  [ЛС] 

SoluSoull ®

Стаж: 2 года 7 месяцев

Сообщений: 379

Симпатии: 452

nine

Создавать темы 21-Мар-2015 08:10

[Профиль]  [ЛС] 

Inquisitor

Стаж: 5 лет 9 месяцев

Сообщений: 133

Симпатии: 6

когда прода?

Создавать темы 10-Апр-2015 15:56

[Профиль]  [ЛС] 

SoluSoull ®

Стаж: 2 года 7 месяцев

Сообщений: 379

Симпатии: 452

всё

Создавать темы 16-Апр-2015 23:07

[Профиль]  [ЛС] 

Топик был перенесен из форума Аниме онгоинги в форум HD, HDTVRip
[email protected]

Создавать темы 17-Апр-2015 09:37

 

john titor

Стаж: 2 года 6 месяцев

Сообщений: 42

Симпатии: 5

ребята встанте на раздачу уже как больше месяца качаю!!!!!! 68.7%

Создавать темы 06-Май-2016 08:37

[Профиль]  [ЛС] 
Показать сообщения:    
Ответить на тему

Текущее время: 24-Окт 10:51

Часовой пояс: UTC + 5



Вы не можете начинать темы
Вы не можете отвечать на сообщения
Вы не можете редактировать свои сообщения
Вы не можете удалять свои сообщения
Вы не можете голосовать в опросах
Вы не можете прикреплять файлы к сообщениям
Вы не можете скачивать файлы