Васса (Глеб Панфилов) [1982, драма, DVDRip]

Ответить на тему
 

lotto ®

Стаж: 7 лет 9 месяцев

Сообщений: 221

Симпатии: 409

Васса-- Жанр: драма
Год выпуска: 1982
Продолжительность: 02:10:50--Режиссёр: Глеб Панфилов
В ролях: Инна Чурикова, Николай Скоробогатов, Валентина Теличкина, Ольга Машная, Яна Поплавская, Валентина Якунина, Вадим Медведев, Альберт Филозов, Вячеслав Богачев, Татьяна Кравченко--Описание: В этом доме детей с юных лет приучали всегда отчетливо говорить «мой»: мой пароход, мой дом, моя фабрика. Здесь считали деньги, нажитые чужим трудом, и за ночь спускали в карты целое состояние; здесь развратничали напропалую и втихомолку шпионили друг за другом; молились и совершали именем господа темные дела. Все было у Вассы — деньги, сила, власть, ум и хватка. Но не было у нее одного — будущего…-- --Качество видео: DVDRip
Формат видео: AVI
Видео: XviD, 656x480, 1462 kbps, 25 fps
Аудио: mp3, 48KHz, 2 ch, 128 kbps

MediaInfo

General
Complete name : \Vassa_DVDRip_1.46GB\01_Vassa_DVDRip_1.46GB.avi
Format : AVI
Format/Info : Audio Video Interleave
File size : 771 MiB
Duration : 1h 7mn
Overall bit rate : 1 600 Kbps
Writing application : VirtualDubModRus 1.5.10.2 (build 2542/release)
Writing library : VirtualDubMod build 2542/release
Video
ID : 0
Format : MPEG-4 Visual
Format profile : Advanced [email protected]
Format settings, BVOP : 2
Format settings, QPel : No
Format settings, GMC : No warppoints
Format settings, Matrix : Default (MPEG)
Muxing mode : Packed bitstream
Codec ID : XVID
Codec ID/Hint : XviD
Duration : 1h 7mn
Bit rate : 1 462 Kbps
Width : 656 pixels
Height : 480 pixels
Display aspect ratio : 4:3
Frame rate : 25.000 fps
Color space : YUV
Chroma subsampling : 4:2:0
Bit depth : 8 bits
Scan type : Progressive
Compression mode : Lossy
Bits/(Pixel*Frame) : 0.186
Stream size : 704 MiB (91%)
Writing library : XviD 1.2.1 (UTC 2008-12-04)
Audio
ID : 1
Format : MPEG Audio
Format version : Version 1
Format profile : Layer 3
Codec ID : 55
Codec ID/Hint : MP3
Duration : 1h 7mn
Bit rate mode : Constant
Bit rate : 128 Kbps
Channel(s) : 2 channels
Sampling rate : 48.0 KHz
Compression mode : Lossy
Stream size : 61.7 MiB (8%)
Alignment : Aligned on interleaves
Interleave, duration : 40 ms (1.00 video frame)
Interleave, preload duratio : 504 ms
Writing library : LAME3.97
Encoding settings : -m s -V 4 -q 1 -b 128

Скриншот c названием фильма

Скриншоты






Создавать темы 13-Мар-2015 10:16

[Профиль]  [ЛС] 

kat222000

Стаж: 6 лет 6 месяцев

Сообщений: 608

Симпатии: 1055

А Почему, ЗОЛОТАЯ РАЗДАЧА! СКАЧАННОЕ НЕ ЗАСЧИТЫВАЕТСЯ! Золото, а здесь https://tas-ix.net/viewtopic.php?t=103558, даже серебро не дали...Да Уж.......

Создавать темы 13-Мар-2015 21:06

[Профиль]  [ЛС] 
Показать сообщения:    
Ответить на тему

Текущее время: 24-Окт 03:48

Часовой пояс: UTC + 5



Вы не можете начинать темы
Вы не можете отвечать на сообщения
Вы не можете редактировать свои сообщения
Вы не можете удалять свои сообщения
Вы не можете голосовать в опросах
Вы не можете прикреплять файлы к сообщениям
Вы не можете скачивать файлы