Я тебя люблю (Павел Костомаров, Александр Расторгуев) [2011, Россия, драма, DVDRip] (Original Rus)

Ответить на тему
 

kat222000 ®

Стаж: 6 лет 7 месяцев

Сообщений: 608

Симпатии: 1055

-Я тебя люблю-Страна: Россия
Жанр: драма
Год выпуска: 2011
Продолжительность: 01:20:45-Перевод: Не требуется
Cубтитры: нет-Режиссер: Павел Костомаров, Александр Расторгуев-В ролях: Станислав Черкасов, Владислав Кузьменко, Иван Мирошниченко, Александр Глотов, Татьяна Кулиш, Манушак Вартеванян, Наталья Велигоненко, Константин Зуйченко, Анна Салмыгина, Татьяна Денисова, Алина Лурье, Кристина Жидко, Давид и Мария Сурмалян, Галина Труфанова, Евгений Борисов, Артем Сотников, Виктория Шевцова, Александра Вартаньянц, Лариса Черкасова.-Описание: Фильм начинается своего рода стилизацией милицейской оперативной съемки. Капитан милиции снимает свою будничную работу, семью. Однажды он забывает камеру в бардачке машины. Машину обворовывают. Так камера «уходит в народ» и попадает в руки трех подростков. Молодые люди с рабочей окраины развлекаются с новой игрушкой. Они снимают свою жизнь, пустые разговоры, бессмысленную работу, праздношатание по району, свидания и ссоры с девчонками. Постепенно на передний план проступает главная тема их молодой жизни — любовь. Цинизм и инфантильность молодости сталкиваются с настоящим и важным проявлением жизни, и мир героев переворачивается.- -Возраст: зрителям, достигшим 16 лет-Рейтинг MPAA: лицам до 17 лет обязательно присутствие взрослого-Качество видео: DVDRip
Формат видео: AVI
Видео кодек: AVC
Аудио кодек: MP3
Видео: AVC, 720x576, 25fps, 2 456kbps
Аудио: MP3, 44100Hz, 2 ch, 128kbps-В фильме присутствует ненормативная лексика.-

MediaInfo

General
Format : AVI
Format/Info : Audio Video Interleave
File size : 1.46 GiB
Duration : 1h 20mn
Overall bit rate mode : Constant
Overall bit rate : 2 597 Kbps
Video
ID : 0
Format : AVC
Format/Info : Advanced Video Codec
Format profile : [email protected]
Format settings, CABAC : Yes
Format settings, ReFrames : 1 frame
Codec ID : X264
Codec ID/Info : XiWave GNU GPL x264 MPEG-4
Duration : 1h 20mn
Bit rate mode : Constant
Bit rate : 2 457 Kbps
Width : 720 pixels
Height : 576 pixels
Display aspect ratio : 5:4
Frame rate : 25.000 fps
Standard : PAL
Color space : YUV
Chroma subsampling : 4:2:0
Bit depth : 8 bits
Scan type : Progressive
Bits/(Pixel*Frame) : 0.237
Stream size : 1.39 GiB (95%)
Audio
ID : 1
Format : MPEG Audio
Format version : Version 1
Format profile : Layer 3
Codec ID : 55
Codec ID/Hint : MP3
Duration : 1h 20mn
Bit rate mode : Constant
Bit rate : 128 Kbps
Channel(s) : 2 channels
Sampling rate : 44.1 KHz
Compression mode : Lossy
Stream size : 73.9 MiB (5%)
Alignment : Split accross interleaves
Interleave, duration : 26 ms (0.65 video frame)
Writing library : LAME3.98.2
-

Скриншоты



- - -

Создавать темы 13-Мар-2015 22:31

[Профиль]  [ЛС] 

kat222000 ®

Стаж: 6 лет 7 месяцев

Сообщений: 608

Симпатии: 1055

СПС

Создавать темы 13-Мар-2015 22:35

[Профиль]  [ЛС] 

vlacom

Стаж: 4 года 4 месяца

Сообщений: 44

Симпатии: 21

kat222000, теперь плз следующий - Я тебя не люблю Александра Расторгуева

Создавать темы 15-Мар-2015 22:02

[Профиль]  [ЛС] 
Показать сообщения:    
Ответить на тему

Текущее время: 24-Ноя 18:14

Часовой пояс: UTC + 5



Вы не можете начинать темы
Вы не можете отвечать на сообщения
Вы не можете редактировать свои сообщения
Вы не можете удалять свои сообщения
Вы не можете голосовать в опросах
Вы не можете прикреплять файлы к сообщениям
Вы не можете скачивать файлы