Большой матч: Игра началась / Big Match (Хо Чои / Ho Choi) [2014, Южная Корея, боевик, HDRip] (MVO : GREEN TEA)

Ответить на тему
 

bbk ®

Стаж: 7 лет

Сообщений: 435

Симпатии: 479

Большой матч: Игра началась / Big Match
Страна: Южная Корея
Жанр: боевик
Год выпуска: 2014
Продолжительность: 01:52:32
Перевод: Профессиональный (многоголосый закадровый) [GREEN TEA]: Петр Слепцов, Константин Романов, Иван Матроскин (Мтрск), Ольга Гринтиева, Анастасия Лаглер
Cубтитры: нет
Режиссер: Хо Чои / Ho Choi
В ролях: Ли Чжон Чжэ
Син Ха Гюн, Ли Сон Мин, BoA, Eui-sung Kim, До-Сик Парк, Ра Ми Ран, Сон Хо Чжун, Пэ Сон У, Ву-сик Чхве
Описание: Чо Ик Хо - звезда боевых искусств. Он известен не только своей силой и ловкостью, но и чувством юмора, который он использует для выступлений.
Но однажды его обвиняют в убийстве. Это подстроено неким человеком по имени Туз. Он геймер, который превращает весь город в большую игровую доску с помощью различных технологий. Туз хочет, чтобы Ик Хо вошел в игру и стал его противником. У бойца не остается другого выбора. Он принимает вызов, ведь на кону жизнь его брата. К тому же надо вернуть себе доброе имя.
 
Качество видео: HDRip
Формат видео: AVI
Видео: H.264, 1280x720, 2 310 Кбит/с, 23.976 fps
Аудио: MP3, 44.0 KHz, 192 Кбит/c, 2 канала

MediaInfo

General
Complete name : [GREEN TEA] Большой матч.avi
Format : AVI
Format/Info : Audio Video Interleave
File size : 1.97 GiB
Duration : 1h 52mn
Overall bit rate : 2 510 Kbps
Writing application : VirtualDubMod 1.5.10.2 (build 2540/release)
Writing library : VirtualDubMod build 2540/release
Video #0
ID : 0
Format : AVC
Format/Info : Advanced Video Codec
Format profile : [email protected]
Format settings, CABAC : Yes
Format settings, ReFrames : 5 frames
Codec ID : h264
Duration : 1h 52mn
Bit rate : 2 310 Kbps
Width : 1 280 pixels
Height : 720 pixels
Display aspect ratio : 16:9
Frame rate : 23.976 fps
Color space : YUV
Chroma subsampling : 4:2:0
Bit depth : 8 bits
Scan type : Progressive
Bits/(Pixel*Frame) : 0.105
Stream size : 1.81 GiB (92%)
Writing library : x264 core 130 r2273 b3065e6
Encoding settings : cabac=1 / ref=5 / deblock=1:-1:-1 / analyse=0x3:0x133 / me=umh / subme=10 / psy=1 / psy_rd=1.00:0.00 / mixed_ref=0 / me_range=24 / chroma_me=1 / trellis=2 / 8x8dct=1 / cqm=0 / deadzone=21,11 / fast_pskip=0 / chroma_qp_offset=-2 / threads=6 / lookahead_threads=1 / sliced_threads=0 / nr=0 / decimate=1 / interlaced=0 / bluray_compat=0 / constrained_intra=0 / bframes=3 / b_pyramid=2 / b_adapt=1 / b_bias=0 / direct=3 / weightb=1 / open_gop=0 / weightp=2 / keyint=250 / keyint_min=23 / scenecut=40 / intra_refresh=0 / rc_lookahead=60 / rc=2pass / mbtree=1 / bitrate=2310 / ratetol=1.0 / qcomp=0.60 / qpmin=10 / qpmax=51 / qpstep=4 / cplxblur=20.0 / qblur=0.5 / ip_ratio=1.40 / aq=1:1.00
Audio #1
ID : 1
Format : MPEG Audio
Format version : Version 1
Format profile : Layer 3
Mode : Joint stereo
Codec ID : 55
Codec ID/Hint : MP3
Duration : 1h 52mn
Bit rate mode : Constant
Bit rate : 192 Kbps
Channel(s) : 2 channels
Sampling rate : 48.0 KHz
Compression mode : Lossy
Stream size : 155 MiB (8%)
Alignment : Aligned on interleaves
Interleave, duration : 42 ms (1.00 video frame)
Interleave, preload duration : 504 ms

Скриншот c названием фильма

Скриншоты

Создавать темы 13-Мар-2015 23:45

[Профиль]  [ЛС] 
Показать сообщения:    
Ответить на тему

Текущее время: 18-Ноя 20:48

Часовой пояс: UTC + 5



Вы не можете начинать темы
Вы не можете отвечать на сообщения
Вы не можете редактировать свои сообщения
Вы не можете удалять свои сообщения
Вы не можете голосовать в опросах
Вы не можете прикреплять файлы к сообщениям
Вы не можете скачивать файлы